Today is a free download without charge Download

Ночная фиалка (Виктория Держицкая) (Комедия, Криминал, 2013) HDTV [1080i]

Reply to topic
 
Author
Message

Omen ®

Longevity: 8 years 10 months

Posts: 181086

Торрент-статистика

Post 25-Jun-2013 12:58

[Quote]

Ночная фиалка - Русское название: Ночная фиалка
Производство: Студия Маркес
Год выпуска: 2013
Жанр: Комедия, Криминал
Режиссер: Виктория Держицкая
Актеры: Иван Жидков, Наталья Рудова, Олег Бойко, Валерий Девятых, Анна Масальская, Дмитрий Шевченко, Анатолий Горячев
Описание фильма:
Богатый и влиятельный чиновник содержит любовницу — очень красивую девушку Риту, которую он в свое время вытащил из борделя. Он обеспечил ее всем — квартирой, машиной, деньгами, потребовав взамен лишь одного — верности. Рита, ни капли не любя этого щедрого, но жестокого и циничного человека, соблюдает их «договор», но лишь до того момента, пока не встречает свою настоящую и единственную любовь.
Алеша — студент МГУ, он красивый, умный, добрый, из хорошей семьи, и у него отличные перспективы. Безумно влюбившись в Риту, он закрывает глаза и на ее темное прошлое и на не слишком светлое настоящее. Он знает лишь одно — она самая прекрасная девушка на свете и, упоенный любовью, мечтает о том, чтобы жениться на ней.
Покровитель Риты, узнав о неверности любовницы, отнимает все, чем когда-то одарил, выгоняет. Рита и Алеша селятся в маленьком дачном домике в Подмосковье. Они решают провести здесь лето, а затем Алеша найдет работу, и у них появятся деньги, чтобы снимать квартиру…

Дата мировой премьеры: 02.06.2013
Продолжительность: ~ 01:28:00
Качество видео: HDTV
Видеокодек: AVC/H.264
Битрейт видео: ~6100 Kbps
Размер кадра: 1920x1080
Аудиокодек: AC3
Битрейт аудио: 2 ch, 192 Kbps

MediaInfo:

Код:
Общее
Уникальный идентификатор : 225181285105283085505424654891923707422 (0xA968568683020795B29DF50F53A2961E)
Полное имя : E:\DOWNLOADS\Ночная фиалка (2013) HDTV 1080.mkv
Формат : Matroska
Версия формата : Version 2
Размер файла : 3,99 Гбайт
Продолжительность : 1 ч. 28 м.
Общий поток : 6434 Кбит/сек
Дата кодирования : UTC 2013-06-24 14:30:58
Программа кодирования : mkvmerge v6.1.0 ('Old Devil') built on Mar 4 2013 09:10:42
Библиотека кодирования : libebml v1.3.0 + libmatroska v1.4.0
Видео
Идентификатор : 1
Формат : AVC
Формат/Информация : Advanced Video Codec
Профиль формата : [url=mailto:[email protected]][email protected][/url]
Параметр CABAC формата : Да
Параметр ReFrames формата : 3 кадра
Идентификатор кодека : V_MPEG4/ISO/AVC
Продолжительность : 1 ч. 28 м.
Битрейт : 6114 Кбит/сек
Ширина : 1920 пикселей
Высота : 1080 пикселей
Соотношение сторон : 16:9
Режим частоты кадров : Постоянный
Частота кадров : 25,000 кадров/сек
Стандарт вещания : Component
Цветовое пространство : YUV
Субдискретизация насыщенности : 4:2:0
Битовая глубина : 8 бит
Тип развёртки : Чересстрочная
Порядок развёртки : Верхнее поле первое
Бит/(Пиксели*Кадры) : 0.118
Размер потока : 3,79 Гбайт (95%)
Default : Да
Forced : Нет
Основные цвета : BT.709
Характеристики трансфера : BT.709
Коэффициенты матрицы : BT.709
Аудио
Идентификатор : 2
Формат : AC-3
Формат/Информация : Audio Coding 3
Расширение режима : CM (complete main)
Параметр Endianness формата : Big
Идентификатор кодека : A_AC3
Продолжительность : 1 ч. 28 м.
Вид битрейта : Постоянный
Битрейт : 192 Кбит/сек
Каналы : 2 канала
Расположение каналов : Front: L R
Частота : 48,0 КГц
Битовая глубина : 16 бит
Метод сжатия : С потерями
Размер потока : 122 Мбайт (3%)
Default : Да
Forced : Нет
Скриншоты:
           
Other forum [Profile] [PM]
Display posts from previous:    
Reply to topic

The time now is: Today 19:27

All times are GMT + 3 Hours



You cannot post new topics in this forum
You cannot reply to topics in this forum
You cannot edit your posts in this forum
You cannot delete your posts in this forum
You cannot vote in polls in this forum
You cannot attach files in this forum
You cannot download files in this forum