Today is a free download without charge Download

Восставший из ада / Hellraiser - Das Tor zur Hölle (Клайв Баркер) [1987 г., ужасы, BDRip720p]

Reply to topic
 
Author
Message

Delia ®

Gender:

Longevity: 9 years 6 months

Posts: 1821

Торрент-статистика

Post 23-Aug-2011 15:41

[Quote]

Восставший из адаHellraiser - Das Tor zur Hölle Год выпуска: 1987
Страна: Великобритания
Жанр: ужасы
Продолжительность: 01:33:22
Перевод: Профессиональный (многоголосый, закадровый)
Режиссер: Клайв Баркер
Продюссер: Марк Армстронг, Кристофер Фигг, Селвин Робертс
Сценарий: Клайв Баркер
Бюджет: $1 000 000
Премьера в мире: 13 мая 1987
В ролях: Эндрю Робинсон, Клэр Хиггинс, Эшли Лоуренс, Шон Чэпман, Оливер Смит, Роберт Хайнс, Энтони Аллен, Леон Дэвис, Майкл Кэссиди, Фрэнк Бэйкер
Описание:Фрэнк Коттон, настоящий бунтарь и мелкий преступник, покупает на восточном базаре у торговца старинную шкатулку-головоломку, которая, как он думает, может открыть своему владельцу врата в мир неописуемых чувственных удовольствий, но он не знает, что эта вещица на самом деле является ключом к вратам ада. Всякий, кто её откроет, станет добычей так называемых сенобитов, демонов Внешней Тьмы, которые могут забрать человека в свой мир, где тот должен ощутить неописуемые удовольствия. Однако удовольствиями для демонов являются боль, пытки и страдания. Именно поэтому их тела сильно изуродованы. Вернувшись домой, Фрэнк разгадывает секрет шкатулки и открывает её. Появившиеся тут же сенобиты во главе с Пинхедом разрывают тело Фрэнка на части, а затем возвращаются в ад.
Проходит некоторое время. Ларри, старший брат Фрэнка, решает переехать в дом, где умер Фрэнк, вместе со своей женой Джулией. Дом находится в запустении, но Ларри, настроенный весьма оптимистично, решает, что это вполне неплохое место для жизни.
Качество: BDRip720p
Формат: MKV
Видео кодек: H.264
Аудио кодек: AC3
Видео: English, 5743 Кбит/сек, 1280*688 (1,860), в 23,976 кадр/сек, AVC ([email protected])
Аудио: Russian, 640 Кбит/сек, 48,0 КГц, 16 бит, 6 канала(ов), AC-3
Аудио:English, 320 Кбит/сек, 48,0 КГц, 16 бит, 6 канала(ов), AC-3
Дополнительно отдельными файлами :
Авторский одноголосый (А. Гаврилов)
Авторский одноголосый ( Ю. Живов)
Субтитры: Русские, русские (Гоблин), английские

MI:

Общее
Уникальный идентификатор : 222498595396352339929005962142349879012 (0xA763ABB5FF0EFDF2AEF9733CB0A166E4)
Полное имя : F:\торрент\Hellraiser - Das Tor zur Hölle(1987)BDRip720p\Hellraiser - Das Tor zur Hölle(1987)BDRip720p.mkv
Формат : Matroska
Размер файла : 4,37 Гбайт
Продолжительность : 1 ч. 33 м.
Общий поток : 6702 Кбит/сек
Дата кодирования : UTC 2011-08-23 10:42:01
Программа кодирования : mkvmerge v4.9.1 ('Ich will') built on Jul 11 2011 23:53:15
Библиотека кодирования : libebml v1.2.1 + libmatroska v1.1.1
Видео
Идентификатор : 1
Формат : AVC
Формат/Информация : Advanced Video Codec
Профиль формата : [email protected]
Параметр CABAC формата : Да
Параметр ReFrames формата : 9 кадры
Идентификатор кодека : V_MPEG4/ISO/AVC
Продолжительность : 1 ч. 33 м.
Битрейт : 5743 Кбит/сек
Ширина : 1280 пикс.
Высота : 688 пикс.
Соотношение сторон : 1,860
Частота кадров : 23,976 кадр/сек
Цветовое пространство : YUV
Подвыборка цветности : 4:2:0
Битовая глубина : 8 бит
Тип развёртки : Прогрессивная
Бит/(Пиксели*Кадры) : 0.272
Размер потока : 3,66 Гбайт (84%)
Библиотека кодирования : x264 core 116 r2057 0ba8a9c
Настройки программы : cabac=1 / ref=9 / deblock=1:-3:-3 / analyse=0x3:0x113 / me=umh / subme=9 / psy=1 / psy_rd=1.20:0.15 / mixed_ref=1 / me_range=32 / chroma_me=1 / trellis=2 / 8x8dct=1 / cqm=0 / deadzone=21,11 / fast_pskip=0 / chroma_qp_offset=-3 / threads=6 / sliced_threads=0 / nr=0 / decimate=1 / interlaced=0 / bluray_compat=0 / constrained_intra=0 / bframes=8 / b_pyramid=2 / b_adapt=2 / b_bias=0 / direct=3 / weightb=1 / open_gop=0 / weightp=2 / keyint=250 / keyint_min=23 / scenecut=40 / intra_refresh=0 / rc_lookahead=50 / rc=2pass / mbtree=1 / bitrate=5743 / ratetol=1.0 / qcomp=0.80 / qpmin=10 / qpmax=55 / qpstep=4 / cplxblur=20.0 / qblur=0.5 / ip_ratio=1.40 / aq=1:1.00
Язык : English
Аудио #1
Идентификатор : 2
Формат : AC-3
Формат/Информация : Audio Coding 3
Расширение режима : CM (complete main)
Идентификатор кодека : A_AC3
Продолжительность : 1 ч. 33 м.
Вид битрейта : Постоянный
Битрейт : 640 Кбит/сек
Канал(ы) : 6 канала(ов)
Расположение каналов : Front: L C R, Side: L R, LFE
Частота : 48,0 КГц
Битовая глубина : 16 бит
Метод сжатия : С потерями
Размер потока : 427 Мбайт (10%)
Язык : Russian
Аудио #2
Идентификатор : 3
Формат : AC-3
Формат/Информация : Audio Coding 3
Расширение режима : CM (complete main)
Идентификатор кодека : A_AC3
Продолжительность : 1 ч. 33 м.
Вид битрейта : Постоянный
Битрейт : 320 Кбит/сек
Канал(ы) : 6 канала(ов)
Расположение каналов : Front: L C R, Side: L R, LFE
Частота : 48,0 КГц
Битовая глубина : 16 бит
Метод сжатия : С потерями
Размер потока : 214 Мбайт (5%)
Язык : English
Текст #1
Идентификатор : 4
Формат : UTF-8
Идентификатор кодека : S_TEXT/UTF8
Идентификатор кодека/Информация : UTF-8 Plain Text
Язык : Russian
Текст #2
Идентификатор : 5
Формат : UTF-8
Идентификатор кодека : S_TEXT/UTF8
Идентификатор кодека/Информация : UTF-8 Plain Text
Язык : Russian
Текст #3
Идентификатор : 6
Формат : UTF-8
Идентификатор кодека : S_TEXT/UTF8
Идентификатор кодека/Информация : UTF-8 Plain Text
Язык : English
Меню
00:00:00.000 : en:00:00:00.000
00:05:31.665 : en:00:05:31.665
00:12:10.730 : en:00:12:10.730
00:16:23.733 : en:00:16:23.733
00:22:44.780 : en:00:22:44.780
00:24:54.118 : en:00:24:54.118
00:28:51.229 : en:00:28:51.229
00:33:27.881 : en:00:33:27.881
00:40:56.079 : en:00:40:56.079
00:46:36.460 : en:00:46:36.460
00:50:12.051 : en:00:50:12.051
00:53:15.734 : en:00:53:15.734
00:59:37.991 : en:00:59:37.991
01:05:29.217 : en:01:05:29.217
01:10:41.946 : en:01:10:41.946
01:14:12.156 : en:01:14:12.156
01:16:57.029 : en:01:16:57.029
01:20:29.408 : en:01:20:29.408
01:23:03.854 : en:01:23:03.854
01:27:20.944 : en:01:27:20.944

Скриншоты

                 

_________________
Человек – это канат, натянутый между животным и сверхчеловеком, – канат над пропастью.
В человеке ценно то, что он мост, а не цель. Фридрих Ницше


Last edited by Delia on 2011-08-23 15:52; edited 1 time in total
Other forum [Profile] [PM]
Display posts from previous:    
Reply to topic

The time now is: Today 08:24

All times are GMT + 3 Hours



You cannot post new topics in this forum
You cannot reply to topics in this forum
You cannot edit your posts in this forum
You cannot delete your posts in this forum
You cannot vote in polls in this forum
You cannot attach files in this forum
You cannot download files in this forum