Today is a free download without charge Download

Muse - Follow Me (Jimmy Kimmel Live 20.06.13) [2013, Alternative rock, HDTVRip 720p]

Reply to topic
 
Author
Message

Omen ®

Longevity: 8 years 3 months

Posts: 181087

Торрент-статистика

Post 24-Jun-2013 18:00

[Quote]

Muse - Follow Me
(Jimmy Kimmel Live 20.06.13)
Жанр: Alternative rock
Продолжительность: 00:03:55
Год выпуска: 2013
Описание: В Лондоне состоялась премьера «Войны миров Z», после которой Muse, заявленные в программе торжества, сыграли «живьем» на территории лондонского парка Сент-Джеймс. В рамках афтерпати была исполнена «Follow Me», где Беллами пел на фоне роликов из триллера с Брэдом Питтом. Фанатам Muse будет небезынтересно узнать, что в картине Марка Форстера использовано 14 минут музыки от Беллами и компании. Сцена, на которой выступали англичане, была сделана в форме буквы «Z», а зрители с удовольствием наблюдали, как Мэтт в красной куртке вкрадчивым голосом гипнотизировал Сент-Джеймс: «Следуйте за мной, и всегда будете под моей защитой».
Трансляция лондонского выступления Muse в Америке была доступна в эфире шоу Джимми Киммела.
Качество: HDTVRip 720p
Контейнер: MKV
Видео кодек: H.264
Аудио кодек: AC3
Видео: AVC, 1280x720, (16:9), 5297 Kbps, Fps 29.970
Аудио: AC3, 384 Kbps, 48.0 KHz, 6 Ch

Отчёт MediaInfo / BDInfo

E:\Muse - Follow Me (Jimmy Kimmel Live 20.06.13).mkv General Unique ID : 220659692519549584031295159806694881690 (0xA60182CC9693C379AB61C8348521799A) Complete name : E:\Muse - Follow Me (Jimmy Kimmel Live 20.06.13).mkv Format : Matroska Format version : Version 2 File size : 162 MiB Duration : 3mn 55s Overall bit rate : 5 796 Kbps Encoded date : UTC 2013-06-22 19:29:23 Writing application : mkvmerge v4.0.0 ('The Stars were mine') ñáîðêà îò Jun 6 2010 16:18:42 Writing library : libebml v1.0.0 + libmatroska v1.0.0 Video #2 ID : 2 Format : AVC Format/Info : Advanced Video Codec Format profile : [email protected] Format settings, CABAC : Yes Format settings, ReFrames : 5 frames Codec ID : V_MPEG4/ISO/AVC Duration : 3mn 55s Bit rate : 5 297 Kbps Width : 1 280 pixels Height : 720 pixels Display aspect ratio : 16:9 Frame rate mode : Constant Frame rate : 29.970 fps Color space : YUV Chroma subsampling : 4:2:0 Bit depth : 8 bits Scan type : Progressive Bits/(Pixel*Frame) : 0.192 Stream size : 148 MiB (91%) Language : English Default : No Forced : No Matrix coefficients : BT.709 Audio #1 ID : 1 Format : AC-3 Format/Info : Audio Coding 3 Mode extension : CM (complete main) Format settings, Endianness : Big Codec ID : A_AC3 Duration : 3mn 55s Bit rate mode : Constant Bit rate : 384 Kbps Channel(s) : 6 channels Channel positions : Front: L C R, Side: L R, LFE Sampling rate : 48.0 KHz Bit depth : 16 bits Compression mode : Lossy Delay relative to video : 20ms Stream size : 10.8 MiB (7%) Default : No Forced : No

Скриншоты

Other forum [Profile] [PM]
Display posts from previous:    
Reply to topic

The time now is: Today 09:20

All times are GMT + 3 Hours



You cannot post new topics in this forum
You cannot reply to topics in this forum
You cannot edit your posts in this forum
You cannot delete your posts in this forum
You cannot vote in polls in this forum
You cannot attach files in this forum
You cannot download files in this forum