Today is a free download without charge Download

(Soundtrack) Форсаж 5 / Fast and Furious 5: Rio Heist - 2011, FLAC (tracks), lossless

Reply to topic
 
Author
Message

Nugeiro ®

Gender:

Longevity: 10 years

Posts: 1981

Location: Украина, Шостка

Торрент-статистика

Post 23-Aug-2011 09:02

[Quote]

Форсаж 5 / Fast and Furious 5: Rio Heist
Страна: США
Жанр: Soundtrack
Год выпуска: 2011
Формат: FLAC (tracks)
Битрейт аудио: lossless
Продолжительность: 00:50:53
Трэклист:
[04:09] 01. Don Omar, J-doe, Reek da Villian & Busta Rhymes - How We Roll (Fast Five Remix)
[02:55] 02. Marcelo D2 & Claudia - Desabafo Deixa Eu Dizer
[03:33] 03. Brian Tyler - Assembling the Team
[07:19] 04. MV Bill - L. Gelada-3 da Madrugada
[04:07] 05. Carlinhos Brown - Carlito Marron
[01:55] 06. Hybrid - Han Drifting
[02:24] 07. Edu K & Hybrid - Million Dollar Race
[03:51] 08. Brian Tyler - Mad Skills
[04:15] 09. ObandO - Batalha
[03:18] 10. Don Omar - Danza Kuduro (feat. Lucenzo)
[03:07] 11. Speed, Black Alien & Tejo - Follow Me Follow Me (Quem Que Caguetou) [Fast 5 Hybrid Remix]
[05:41] 12. Brian Tyler - Fast Five Suite
[04:04] 13. Ludacris - F5 (Furiously Dangerous) [feat. Slaughterhouse & Claret Jai]

Отчёт ЕАС

Код:
Exact Audio Copy V1.0 beta 1 from 15. November 2010
EAC extraction logfile from 27. May 2011, 16:41
Various (Soundtrack) / Fast Five: Original Motion Picture Soundtrack
Used drive  : Optiarc DVD RW AD-7561S   Adapter: 1  ID: 0
Read mode               : Secure
Utilize accurate stream : Yes
Defeat audio cache      : Yes
Make use of C2 pointers : No
Read offset correction                      : 6
Overread into Lead-In and Lead-Out          : No
Fill up missing offset samples with silence : Yes
Delete leading and trailing silent blocks   : No
Null samples used in CRC calculations       : Yes
Used interface                              : Native Win32 interface for Win NT & 2000
Gap handling                                : Appended to previous track
Used output format              : User Defined Encoder
Selected bitrate                : 896 kBit/s
Quality                         : High
Add ID3 tag                     : No
Command line compressor         : C:\Program Files\Exact Audio Copy\Flac\flac.exe
Additional command line options : -8 -V -T "ARTIST=%a" -T "TITLE=%t" -T "ALBUM=%g" -T "DATE=%y" -T "TRACKNUMBER=%n" -T "TOTALTRACKS=%x" -T "GENRE=%m" -T "ALBUM ARTIST=%v" -T "ALBUMARTIST=%v" -T "COMMENT=EAC V1.0 beta 1, Secure Mode, Test & Copy, AccurateRip
TOC of the extracted CD
     Track |   Start  |  Length  | Start sector | End sector
    ---------------------------------------------------------
        1  |  0:00.00 |  4:10.50 |         0    |    18799
        2  |  4:10.50 |  2:56.50 |     18800    |    32049
        3  |  7:07.25 |  3:35.22 |     32050    |    48196
        4  | 10:42.47 |  7:20.11 |     48197    |    81207
        5  | 18:02.58 |  4:07.37 |     81208    |    99769
        6  | 22:10.20 |  1:56.35 |     99770    |   108504
        7  | 24:06.55 |  2:24.49 |    108505    |   119353
        8  | 26:31.29 |  3:51.16 |    119354    |   136694
        9  | 30:22.45 |  4:16.70 |    136695    |   155964
       10  | 34:39.40 |  3:19.01 |    155965    |   170890
       11  | 37:58.41 |  3:07.56 |    170891    |   184971
       12  | 41:06.22 |  5:43.43 |    184972    |   210739
       13  | 46:49.65 |  4:04.07 |    210740    |   229046
Track  1
     Filename E:\Lossless\Various (Soundtrack) - Fast Five- Original Motion Picture Soundtrack (2011) [FLAC]\01 - How We Roll (Fast Five Remix).wav
     Pre-gap length  0:00:02.00
     Peak level 98.8 %
     Extraction speed 2.6 X
     Track quality 100.0 %
     Test CRC 40FB1262
     Copy CRC 40FB1262
     Track not present in AccurateRip database
     Copy OK
Track  2
     Filename E:\Lossless\Various (Soundtrack) - Fast Five- Original Motion Picture Soundtrack (2011) [FLAC]\02 - Desabafo - Deixa Eu Dizer.wav
     Pre-gap length  0:00:01.41
     Peak level 84.1 %
     Extraction speed 2.2 X
     Track quality 99.9 %
     Test CRC 1BA967D3
     Copy CRC 1BA967D3
     Track not present in AccurateRip database
     Copy OK
Track  3
     Filename E:\Lossless\Various (Soundtrack) - Fast Five- Original Motion Picture Soundtrack (2011) [FLAC]\03 - Assembling the Team.wav
     Pre-gap length  0:00:00.92
     Peak level 94.4 %
     Extraction speed 3.1 X
     Track quality 100.0 %
     Test CRC DE0E43BC
     Copy CRC DE0E43BC
     Track not present in AccurateRip database
     Copy OK
Track  4
     Filename E:\Lossless\Various (Soundtrack) - Fast Five- Original Motion Picture Soundtrack (2011) [FLAC]\04 - L. Gelada-3 Da Madrugada.wav
     Pre-gap length  0:00:02.21
     Peak level 87.7 %
     Extraction speed 3.7 X
     Track quality 100.0 %
     Test CRC 3050F5E4
     Copy CRC 3050F5E4
     Track not present in AccurateRip database
     Copy OK
Track  5
     Filename E:\Lossless\Various (Soundtrack) - Fast Five- Original Motion Picture Soundtrack (2011) [FLAC]\05 - Carlito Marron.wav
     Pre-gap length  0:00:00.37
     Peak level 95.4 %
     Extraction speed 3.8 X
     Track quality 100.0 %
     Test CRC 0AC6B466
     Copy CRC 0AC6B466
     Track not present in AccurateRip database
     Copy OK
Track  6
     Filename E:\Lossless\Various (Soundtrack) - Fast Five- Original Motion Picture Soundtrack (2011) [FLAC]\06 - Han Drifting.wav
     Pre-gap length  0:00:00.41
     Peak level 95.5 %
     Extraction speed 3.4 X
     Track quality 100.0 %
     Test CRC E5F845FD
     Copy CRC E5F845FD
     Track not present in AccurateRip database
     Copy OK
Track  7
     Filename E:\Lossless\Various (Soundtrack) - Fast Five- Original Motion Picture Soundtrack (2011) [FLAC]\07 - Million Dollar Race.wav
     Pre-gap length  0:00:01.10
     Peak level 96.6 %
     Extraction speed 3.7 X
     Track quality 100.0 %
     Test CRC 0E6150C3
     Copy CRC 0E6150C3
     Track not present in AccurateRip database
     Copy OK
Track  8
     Filename E:\Lossless\Various (Soundtrack) - Fast Five- Original Motion Picture Soundtrack (2011) [FLAC]\08 - Mad Skills.wav
     Pre-gap length  0:00:00.44
     Peak level 97.7 %
     Extraction speed 4.2 X
     Track quality 100.0 %
     Test CRC 6672ECC1
     Copy CRC 6672ECC1
     Track not present in AccurateRip database
     Copy OK
Track  9
     Filename E:\Lossless\Various (Soundtrack) - Fast Five- Original Motion Picture Soundtrack (2011) [FLAC]\09 - Batalha.wav
     Peak level 93.3 %
     Extraction speed 4.5 X
     Track quality 100.0 %
     Test CRC 7C3831B3
     Copy CRC 7C3831B3
     Track not present in AccurateRip database
     Copy OK
Track 10
     Filename E:\Lossless\Various (Soundtrack) - Fast Five- Original Motion Picture Soundtrack (2011) [FLAC]\10 - Danza Kuduro.wav
     Pre-gap length  0:00:01.94
     Peak level 84.0 %
     Extraction speed 4.5 X
     Track quality 100.0 %
     Test CRC F54FBD2E
     Copy CRC F54FBD2E
     Track not present in AccurateRip database
     Copy OK
Track 11
     Filename E:\Lossless\Various (Soundtrack) - Fast Five- Original Motion Picture Soundtrack (2011) [FLAC]\11 - Follow Me Follow Me (Quem Que Caguetou) (Fast 5 Hybrid Remix).wav
     Pre-gap length  0:00:00.62
     Peak level 98.8 %
     Extraction speed 4.6 X
     Track quality 100.0 %
     Test CRC 48490660
     Copy CRC 48490660
     Track not present in AccurateRip database
     Copy OK
Track 12
     Filename E:\Lossless\Various (Soundtrack) - Fast Five- Original Motion Picture Soundtrack (2011) [FLAC]\12 - Fast Five Suite.wav
     Peak level 96.9 %
     Extraction speed 5.1 X
     Track quality 100.0 %
     Test CRC AE3B03A1
     Copy CRC AE3B03A1
     Track not present in AccurateRip database
     Copy OK
Track 13
     Filename E:\Lossless\Various (Soundtrack) - Fast Five- Original Motion Picture Soundtrack (2011) [FLAC]\13 - Furiously Dangerous.wav
     Pre-gap length  0:00:01.89
     Peak level 93.3 %
     Extraction speed 4.2 X
     Track quality 99.9 %
     Test CRC FE30C0D0
     Copy CRC FE30C0D0
     Track not present in AccurateRip database
     Copy OK
None of the tracks are present in the AccurateRip database
No errors occurred
End of status report
==== Log checksum 26A8416257DC9662C1BEE13FDEC2DB57408BD47558D4924427A95749D6A59420 ====

Отчёт auCDtect Task manager

Код:
AUDIOCHECKER v2.0 beta (build 457) - by Dester - [email protected]
~~~~~~~~~~~~~~~~~~~~~~~~~~~~~~~~~~
-=== DO NOT EDIT THIS FILE! ===-
Path: ...\2011 - Fast & Furious 5
01 -=- 01 - How We Roll (Fast Five Remix).flac -=- CDDA (99%)
02 -=- 02 - Desabafo - Deixa Eu Dizer.flac -=- CDDA (100%)
03 -=- 03 - Assembling the Team.flac -=- CDDA (100%)
04 -=- 04 - L. Gelada-3 Da Madrugada.flac -=- CDDA (100%)
05 -=- 05 - Carlito Marron.flac -=- CDDA (100%)
06 -=- 06 - Han Drifting.flac -=- CDDA (100%)
07 -=- 07 - Million Dollar Race.flac -=- CDDA (100%)
08 -=- 08 - Mad Skills.flac -=- CDDA (100%)
09 -=- 09 - Batalha.flac -=- MPEG (95%)
10 -=- 10 - Danza Kuduro.flac -=- MPEG (95%)
11 -=- 11 - Follow Me Follow Me (Quem Que Caguetou) (Fast 5 Hybrid Remix).flac -=- CDDA (99%)
12 -=- 12 - Fast Five Suite.flac -=- CDDA (100%)
13 -=- 13 - Furiously Dangerous.flac -=- CDDA (100%)
Summary 85,23% CDDA
25868836

_________________
Other forum [Profile] [PM]
Display posts from previous:    
Reply to topic

The time now is: Today 00:54

All times are GMT + 3 Hours



You cannot post new topics in this forum
You cannot reply to topics in this forum
You cannot edit your posts in this forum
You cannot delete your posts in this forum
You cannot vote in polls in this forum
You cannot attach files in this forum
You cannot download files in this forum