Today is a free download without charge Download

Muse - Live in Japan(Saitama Super Arena,12.01.2013) [2013, Alternative, HDTV 1080i]

Reply to topic
 
Author
Message

Omen ®

Longevity: 8 years 3 months

Posts: 181087

Торрент-статистика

Post 23-Jun-2013 13:34

[Quote]

Muse - Live in Japan(Saitama Super Arena,12.01.2013)- Жанр: Alternative
Продолжительность: 01:34:15
Год выпуска: 2013
1. The 2nd Law: Unsustainable
2. Supremacy
3. Hysteria
4. Bliss
5. Supermassive Black Hole
6. Knights of Cydonia (Man with a Harmonica intro)
7. Explorers
8. Sunburn
9. Time Is Running Out
10. Liquid State
11. Madness
12. Follow Me
13. Undisclosed Desires
14. Plug in Baby
15. New Born
16. Uprising
17. Starlight
Качество: HDTV 1080i
Контейнер: TS
Видео кодек: H.264
Аудио кодек: AC3
Видео: H.264; 1920x1080; 7 293 Kbps ; 25.000 fps
Аудио: AC-3; 384 Kbps; 48,0 КГц; 6 ch
Аудио 2: AC-3; 256 Kbps; 48,0 КГц; 2 ch

Отчёт MediaInfo

omplete name : Muse - Live in Japan.tsFormat : MPEG-TSFile size : 5.50 GiBDuration : 1h 34mnOverall bit rate mode : VariableOverall bit rate : 8 352 Kbps
VideoID : 171 (0xAB)Menu ID : 9312 (0x2460)Format : AVCFormat/Info : Advanced Video CodecFormat profile : [email protected] settings, CABAC : YesFormat settings, ReFrames : 4 framesCodec ID : 27Duration : 1h 34mnBit rate : 7 293 KbpsWidth : 1 920 pixelsHeight : 1 080 pixelsDisplay aspect ratio : 16:9Frame rate : 25.000 fpsColor space : YUVChroma subsampling : 4:2:0Bit depth : 8 bitsScan type : MBAFFBits/(Pixel*Frame) : 0.141Stream size : 4.80 GiB (87%)Encryption : Seca Mediaguard 1/2Color primaries : BT.709Transfer characteristics : BT.709Matrix coefficients : BT.709
Audio #1ID : 125 (0x7D)Menu ID : 9312 (0x2460)Format : AC-3Format/Info : Audio Coding 3Mode extension : CM (complete main)Format settings, Endianness : BigCodec ID : 6Duration : 1h 34mnBit rate mode : ConstantBit rate : 384 KbpsChannel(s) : 6 channelsChannel positions : Front: L C R, Side: L R, LFESampling rate : 48.0 KHzBit depth : 16 bitsCompression mode : LossyDelay relative to video : 29msStream size : 259 MiB (5%)Language : FrenchEncryption : Seca Mediaguard 1/2
Audio #2ID : 126 (0x7E)Menu ID : 9312 (0x2460)Format : AC-3Format/Info : Audio Coding 3Format profile : Dolby DigitalMode extension : CM (complete main)Format settings, Endianness : BigCodec ID : 6Duration : 1h 34mnBit rate mode : ConstantBit rate : 256 KbpsChannel(s) : 2 channelsChannel positions : Front: L RSampling rate : 48.0 KHzBit depth : 16 bitsCompression mode : LossyDelay relative to video : 23msStream size : 173 MiB (3%)Language : EnglishEncryption : Seca Mediaguard 1/2

Скриншоты

Other forum [Profile] [PM]
Display posts from previous:    
Reply to topic

The time now is: Today 22:02

All times are GMT + 3 Hours



You cannot post new topics in this forum
You cannot reply to topics in this forum
You cannot edit your posts in this forum
You cannot delete your posts in this forum
You cannot vote in polls in this forum
You cannot attach files in this forum
You cannot download files in this forum