Today is a free download without charge Download

Брестская крепость (Александр Котт) [2010.., Драма, Военный, BDRemux [1080p]]

Reply to topic
 
Author
Message

Meshanik ®

Gender:

Longevity: 9 years 3 months

Posts: 3866

Location: Los Angeles

Торрент-статистика

Post 23-Jun-2013 12:20

[Quote]

Брестская крепость
«Я умираю, но не сдаюсь!»
- Оригинальное название: Брестская крепость
Год выпуска: 2010
Производство: Россия, Беларусь / Беларусьфильм, Централ Партнершип
Жанр: Драма, Военный
Продолжительность: 02:18:19
Субтитры: Вшитые отключаемые
Язык субтитров: Английский
Режиссер: Александр Котт
Продюсер: Игорь Угольников, Рубен Дишдишян, Владимир Заметалин
Актеры: Алексей Копашов, Андрей Мерзликин, Павел Деревянко, Александр Коршунов, Евгений Цыганов, Максим Костромыкин, Анатолий Кот, Яна Есипович, Сергей Цепов, Анна Цуканова
Описание фильма:
Фильм рассказывает о героической обороне Брестской крепости, которая приняла на себя первый удар немецко-фашистских захватчиков 22 июня 1941 года. С документальной точностью описываются события, происходившие в первые дни обороны. Фильм рассказывает о главных трёх очагах сопротивления, возглавляемых командиром полка Петром Гавриловым, комиссаром Ефимом Фоминым и начальником 9-й погранзаставы Андреем Кижеватовым.

Дата мировой премьеры: 22 июня 2010
Дата российской премьеры: 4 ноября 2010, «Централ Партнершип»
Дата выхода DVD релиза: 7 декабря 2010, «Флагман-Трейд»
Дата выхода Blu-Ray релиза: 8 февраля 2011, «Флагман-Трейд»
Возраст 16+ - зрителям, достигшим 16 лет
Качество видео: BDRemux [UK / United Kingdom]
Видео: MPEG4_AVC/H.264, 1920x1080, ~ 18494 kbps, 24 fps
Аудио 1: DTS-HD MA 5.1, 2079 kbps, 48 kHz [Русский]
Аудио 2: AC3 5.1, 640 kbps, 48 kHz [Русский]

Отчёт MediaInfo

Полное имя : D:\Брестская крепость.(2010).BDRemux.[1080p].mkv
Формат : Matroska
Версия формата : Version 2
Размер файла : 20,4 Гбайт
Продолжительность : 2 ч. 18 м.
Режим общего битрейта : Переменный
Общий поток : 21,1 Мбит/сек
Название фильма : Lelya_K for /*spam*/
Дата кодирования : UTC 2013-06-23 06:10:45
Программа кодирования : mkvmerge v5.7.0 ('The Whirlwind') built on Aug 7 2012 14:11:40
Библиотека кодирования : libebml v1.2.3 + libmatroska v1.3.0
Видео
Идентификатор : 1
Формат : AVC
Формат/Информация : Advanced Video Codec
Профиль формата : [url=mailto:[email protected]][email protected][/url]
Параметр CABAC формата : Да
Параметр ReFrames формата : 4 кадра
Идентификатор кодека : V_MPEG4/ISO/AVC
Продолжительность : 2 ч. 18 м.
Вид битрейта : Переменный
Битрейт : 18,5 Мбит/сек
Максимальный битрейт : 40,0 Мбит/сек
Ширина : 1920 пикселей
Высота : 1080 пикселей
Соотношение сторон : 16:9
Режим частоты кадров : Постоянный
Частота кадров : 24,000 кадра/сек
Цветовое пространство : YUV
Субдискретизация насыщенности : 4:2:0
Битовая глубина : 8 бит
Тип развёртки : Прогрессивная
Бит/(Пиксели*Кадры) : 0.372
Размер потока : 17,9 Гбайт (88%)
Заголовок : Брестская крепость.(2010).BDRemux.[1080p]
Язык : Russian
Default : Да
Forced : Нет
Аудио #1
Идентификатор : 2
Формат : DTS
Формат/Информация : Digital Theater Systems
Профиль формата : MA / Core
Идентификатор кодека : A_DTS
Продолжительность : 2 ч. 18 м.
Вид битрейта : Переменный
Битрейт : 1561 Кбит/сек / 1510 Кбит/сек
Каналы : 6 каналов
Расположение каналов : Front: L C R, Side: L R, LFE
Частота : 48,0 КГц
Битовая глубина : 16 бит
Метод сжатия : Без потерь / Lossy
Заголовок : DTS-HD MA 5.1 / 2079 kbps
Язык : Russian
Default : Да
Forced : Нет
Аудио #2
Идентификатор : 3
Формат : AC-3
Формат/Информация : Audio Coding 3
Расширение режима : CM (complete main)
Параметр Endianness формата : Big
Идентификатор кодека : A_AC3
Продолжительность : 2 ч. 18 м.
Вид битрейта : Постоянный
Битрейт : 640 Кбит/сек
Каналы : 6 каналов
Расположение каналов : Front: L C R, Side: L R, LFE
Частота : 48,0 КГц
Битовая глубина : 16 бит
Метод сжатия : С потерями
Размер потока : 633 Мбайт (3%)
Заголовок : AC3 5.1 / 640 kbps
Язык : Russian
Default : Нет
Forced : Нет
Текст
Идентификатор : 4
Формат : UTF-8
Идентификатор кодека : S_TEXT/UTF8
Идентификатор кодека/Информация : UTF-8 Plain Text
Заголовок : Full
Язык : English
Default : Нет
Forced : Нет
Меню
00:00:00.000 : ru:Chapter 1
00:11:06.000 : ru:Chapter 2
00:21:40.000 : ru:Chapter 3
00:31:29.000 : ru:Chapter 4
00:44:08.000 : ru:Chapter 5
01:00:52.541 : ru:Chapter 6
01:15:30.000 : ru:Chapter 7
01:25:48.000 : ru:Chapter 8
01:33:54.000 : ru:Chapter 9
01:44:01.000 : ru:Chapter 10
02:04:28.333 : ru:Chapter 11
02:13:46.000 : ru:Chapter 12

Награды и кинопремии

Золотой орел, 2011 год
Победитель (2):
  • Лучший монтаж
  • Лучшая музыка
  • Лучшая работа звукорежиссера
Номинации (1):
  • Лучший фильм
Ника, 2011 год
Победитель (3):
  • Лучшие костюмы
  • Лучший звук
  • Лучшая работа художника-постановщика
Номинации (5):
  • Лучший фильм
  • Лучшая мужская роль (Павел Деревянко)
  • Лучшая мужская роль второго плана (Евгений Цыганов)
  • Открытие года (Алексей Копашов)
  • Лучший режиссер (Александр Котт)
Жорж, 2011 год
Победитель (2):
  • Лучший российский экшн
  • Лучшая российская драма
Скриншоты:
       
       
Other forum [Profile] [PM]
Display posts from previous:    
Reply to topic

The time now is: Today 14:35

All times are GMT + 3 Hours



You cannot post new topics in this forum
You cannot reply to topics in this forum
You cannot edit your posts in this forum
You cannot delete your posts in this forum
You cannot vote in polls in this forum
You cannot attach files in this forum
You cannot download files in this forum