Today is a free download without charge Download

Discovery. Выживание в засуху / Surviving The Drought (2008) BDRip [H.264/720p]

Reply to topic
 
Author
Message

UndegraundMen ®

Longevity: 7 years 7 months

Posts: 25145

Торрент-статистика

Post 23-Jun-2013 04:19

[Quote]

Discovery. Выживание в засуху / Surviving The Drought (2008) BDRip [H.264/720p]- Русское название: Discovery. Выживание в засуху
Оригинальное название: Surviving The Drought
Страна: Франция
Режиссер / Телекомпания: Жан Барро
Год выпуска: 2009
Жанр: документальный, научно-популярный, природа
Описание: С началом 21-го века глобальное потепление не обошло и саванну. В Танзании река Руаха пересохла и немногочисленные оставшиеся водоемы полны животных. Обитатели саванны вынуждены спасаться бегством, в сопровождении кортежа хищников. Скоро жертвы на песчаном речном дне будут исчисляться десятками. Животным придется драться, за уже занятые водоемы, недолговечные лужи или даже пытаться конкурировать за немногочисленные грязные лужи, оставленные слонами. В этой части Танзании поиск воды стал вопросом жизни и смерти. Клан старой львицы может диктовать условия в этой битве.
Продолжительность: 00:43:05
Субтитры: вшитые (на места без перевода)
Язык субтитров: русский
Перевод: Одноголосый закадровый (профессиональный)
Видеокодек: MPEG-4 AVC/H.264
Битрейт видео: ~ 7 443 Кбит/с
Размер кадра: 1280 x 720
Качество видео: BDRip [720p]
Аудио:
1. [Русский] AC3, 2.0 ch, 192 Кбит/с
2. [Немецкий] DTS, 2.0 ch, 1510 Кбит/с
3. [Английский] DTS, 2.0 ch, 1510 Кбит/с

MediaInfo

Общее
Уникальный идентификатор : 220406292064107662969998503170434655562 (0xA5D0B5312F82195FB5887A63731FE54A)
Полное имя : A:\Релизы\Surviving.The.Drought.BDRip.720p.mkv
Формат : Matroska
Версия формата : Version 2
Размер файла : 3,21 Гбайт
Продолжительность : 43 м.
Общий поток : 10,7 Мбит/сек
Название фильма : -= Release FfClub =-
Дата кодирования : UTC 2013-01-31 18:41:20
Программа кодирования : mkvmerge v4.3.0 ('Escape from the Island') сборка от Sep 5 2010 10:30:51
Библиотека кодирования : libebml v1.0.0 + libmatroska v1.0.0
Видео
Идентификатор : 1
Формат : AVC
Формат/Информация : Advanced Video Codec
Профиль формата : [url=mailto:[email protected]][email protected][/url]
Параметр CABAC формата : Да
Параметр ReFrames формата : 8 кадров
Идентификатор кодека : V_MPEG4/ISO/AVC
Продолжительность : 43 м.
Битрейт : 7443 Кбит/сек
Ширина : 1280 пикселей
Высота : 720 пикселей
Соотношение сторон : 16:9
Частота кадров : 25,000 кадров/сек
Цветовое пространство : YUV
Субдискретизация насыщенности : 4:2:0
Битовая глубина : 8 бит
Тип развёртки : Прогрессивная
Бит/(Пиксели*Кадры) : 0.323
Размер потока : 2,18 Гбайт (68%)
Заголовок : Wyziwanie.w.zasuchu.2007.x264.BDRip(720p)-neni
Библиотека кодирования : x264 core 129 r2230 1cffe9f
Настройки программы : cabac=1 / ref=8 / deblock=1:-3:-3 / analyse=0x3:0x113 / me=umh / subme=11 / psy=1 / psy_rd=1.00:0.00 / mixed_ref=1 / me_range=42 / chroma_me=1 / trellis=2 / 8x8dct=1 / cqm=0 / deadzone=21,11 / fast_pskip=0 / chroma_qp_offset=1 / threads=9 / lookahead_threads=1 / sliced_threads=0 / nr=0 / decimate=0 / interlaced=0 / bluray_compat=0 / constrained_intra=0 / bframes=9 / b_pyramid=2 / b_adapt=2 / b_bias=0 / direct=1 / weightb=1 / open_gop=0 / weightp=2 / keyint=250 / keyint_min=25 / scenecut=40 / intra_refresh=0 / rc_lookahead=40 / rc=2pass / mbtree=0 / bitrate=7443 / ratetol=1.0 / qcomp=0.60 / qpmin=0 / qpmax=69 / qpstep=4 / cplxblur=20.0 / qblur=0.5 / vbv_maxrate=50000 / vbv_bufsize=54500 / nal_hrd=none / ip_ratio=1.40 / pb_ratio=1.30 / aq=1:0.80
Язык : Russian
Default : Да
Forced : Да
Аудио #1
Идентификатор : 2
Формат : AC-3
Формат/Информация : Audio Coding 3
Профиль формата : Dolby Digital
Расширение режима : CM (complete main)
Параметр Endianness формата : Big
Идентификатор кодека : A_AC3
Продолжительность : 43 м.
Вид битрейта : Постоянный
Битрейт : 192 Кбит/сек
Каналы : 2 канала
Расположение каналов : Front: L R
Частота : 48,0 КГц
Битовая глубина : 16 бит
Метод сжатия : С потерями
Размер потока : 59,2 Мбайт (2%)
Заголовок : Русский
Язык : Russian
Default : Да
Forced : Да
Аудио #2
Идентификатор : 3
Формат : DTS
Формат/Информация : Digital Theater Systems
Идентификатор кодека : A_DTS
Продолжительность : 43 м.
Вид битрейта : Постоянный
Битрейт : 1510 Кбит/сек
Каналы : 2 канала
Расположение каналов : Front: L R
Частота : 48,0 КГц
Битовая глубина : 16 бит
Метод сжатия : С потерями
Размер потока : 465 Мбайт (14%)
Заголовок : Deutsch
Язык : German
Default : Нет
Forced : Нет
Аудио #3
Идентификатор : 4
Формат : DTS
Формат/Информация : Digital Theater Systems
Идентификатор кодека : A_DTS
Продолжительность : 43 м.
Вид битрейта : Постоянный
Битрейт : 1510 Кбит/сек
Каналы : 2 канала
Расположение каналов : Front: L R
Частота : 48,0 КГц
Битовая глубина : 16 бит
Метод сжатия : С потерями
Размер потока : 465 Мбайт (14%)
Заголовок : Englisch
Язык : English
Default : Нет
Forced : Нет
Текст
Идентификатор : 5
Формат : UTF-8
Идентификатор кодека : S_TEXT/UTF8
Идентификатор кодека/Информация : UTF-8 Plain Text
Заголовок : Русские
Язык : Russian
Default : Да
Forced : Да
Скриншоты:
         
         
Other forum [Profile] [PM]
Display posts from previous:    
Reply to topic

The time now is: Today 03:20

All times are GMT + 3 Hours



You cannot post new topics in this forum
You cannot reply to topics in this forum
You cannot edit your posts in this forum
You cannot delete your posts in this forum
You cannot vote in polls in this forum
You cannot attach files in this forum
You cannot download files in this forum