Today is a free download without charge Download

Imelda May • Proud and Humble • The Tonight Show with Jay Leno [2012, Rockabilly, HDTVRip 1080i]

Reply to topic
 
Author
Message

Omen ®

Longevity: 8 years 3 months

Posts: 181087

Торрент-статистика

Post 22-Jun-2013 21:15

[Quote]



Imelda May
• Proud and Humble • The Tonight Show with Jay Leno •

Жанр: Rockabilly
Продолжительность: 00:04:03
Год выпуска: January 31, 2012
-Качество: HDTVRip 1080i
Контейнер: MKV
Видео кодек: MPEG2
Аудио кодек: AC3
Видео: MPEG2 Video 1920x1080 29.97fps 12.5 Mbps
Аудио: Dolby AC3 48000Hz 6ch 384 Kbps

Отчёт MediaInfo / BDInfo

GeneralUnique ID : 210159388575094320261908415421514088569 (0x9E1B39D83154492AB766B8F072C98079)Complete name : E:\Imelda May - Proud and Humble - Jan 31 2012.mkvFormat : MatroskaFormat version : Version 2File size : 382 MiBDuration : 4mn 3sOverall bit rate mode : VariableOverall bit rate : 13.2 MbpsEncoded date : UTC 2013-06-22 16:58:05Writing application : mkvmerge v6.2.0 ('Promised Land') built on Apr 28 2013 12:22:01Writing library : libebml v1.3.0 + libmatroska v1.4.0
VideoID : 1Format : MPEG VideoFormat version : Version 2Format profile : [email protected] settings, BVOP : NoFormat settings, Matrix : CustomCodec ID : V_MPEG2Codec ID/Info : MPEG 1 or 2 VideoDuration : 4mn 3sBit rate mode : VariableBit rate : 12.5 MbpsMaximum bit rate : 24.0 MbpsWidth : 1 920 pixelsHeight : 1 080 pixelsDisplay aspect ratio : 16:9Active Format Description : Letterbox 16:9 image, with alternative 4:3 centerFrame rate mode : ConstantFrame rate : 29.970 fpsColor space : YUVChroma subsampling : 4:2:0Bit depth : 8 bitsScan type : InterlacedScan order : Top Field FirstCompression mode : LossyBits/(Pixel*Frame) : 0.202Time code of first frame : 00:00:00:00Time code source : Group of pictures headerStream size : 363 MiB (95%)Writing library : (c) 1998-2011 Womble Multimedia, Inc. / MPEG Video Wizard DVD 5.0.1.100 (03/2011) / Jun 24 2011Default : YesForced : No
AudioID : 2Format : AC-3Format/Info : Audio Coding 3Mode extension : CM (complete main)Format settings, Endianness : BigCodec ID : A_AC3Duration : 4mn 3sBit rate mode : ConstantBit rate : 384 KbpsChannel(s) : 6 channelsChannel positions : Front: L C R, Side: L R, LFESampling rate : 48.0 KHzBit depth : 16 bitsCompression mode : LossyStream size : 11.1 MiB (3%)Default : YesForced : No

Скриншоты

Other forum [Profile] [PM]
Display posts from previous:    
Reply to topic

The time now is: Today 21:44

All times are GMT + 3 Hours



You cannot post new topics in this forum
You cannot reply to topics in this forum
You cannot edit your posts in this forum
You cannot delete your posts in this forum
You cannot vote in polls in this forum
You cannot attach files in this forum
You cannot download files in this forum