Today is a free download without charge Download

На игре (Павел Санаев) (Боевик, Приключения, 2009) DVD9 [Режиссёрская версия]

Reply to topic
 
Author
Message

Omen ®

Longevity: 8 years 10 months

Posts: 181086

Торрент-статистика

Post 22-Jun-2013 19:00

[Quote]

На игре
[Режиссёрская версия]
- Русское название: На игре
Год выпуска: 2009
Жанр: Боевик, Приключения
Описание фильма:
После оглушительной победы на турнире по киберспорту команде друзей-геймеров вручают диски с новейшей, только что разработанной игрой. Запустив игру, каждый из них подвергается воздействию, переводящему их игровые способности в реальные. Теперь и в жизни они лучшие бойцы, стрелки и гонщики. Данное событие не остается незамеченным. Властные структуры путем шантажа, обмана и подкупа предлагают геймерам "работу", которая использует их уникальные способности. Но как только обман раскрывается становиться понятно, что они не герои, спасающие страну, а банальные наемные убийцы. Встает вопрос: как быть дальше?
Команда разделилась. Каждый идет к своей цели...
Режиссер: Павел Санаев
Актеры: Алексей Бардуков, Агния Дитковските, Сергей Чирков, Павел Прилучный, Евгений Харланов, Виктор Вержбицкий, Игорь Скляр, Марина Петренко, Тихон Жизневский, Нодар Сирадзе
Продолжительность: 02:07:22

Видеокодек: MPEG-2
Битрейт видео: ~5 989 Kbps
Размер кадра: 720x576 (PAL 16:9)
Качество видео: DVD9
Аудиокодек: AC3 2.0, AC3 5.1, DTS 5.1
Битрейт аудио:
1. AC3, 2 ch, 192 Кбит/с - русский
2. AC3, 6 ch, 448 Кбит/с - русский
3. DTS, 6 ch, 755 Кбит/с - русский
Субтитры: нет

DVDinfo

Title:
Size: 6.67 Gb ( 6 999 572 KBytes ) - DVD-9
Enabled regions: 1, 2, 3, 4, 5, 6, All
VTS_01 :
Play Length: 02:07:22
Video: PAL 16:9 (720x576) VBR, Auto Letterboxed
Audio:
English (Dolby AC3, 2 ch)
English (Dolby AC3, 6 ch)
English (DTS, 6 ch)
VTS_02 :
Play Length: 00:00:22
Video: PAL 4:3 (720x576) VBR
Audio:
English (Dolby AC3, 2 ch)
VTS_03 :
Play Length: 00:00:17
Video: PAL 16:9 (720x576) VBR, Auto Letterboxed
Audio:
English (Dolby AC3, 2 ch)
Menu Video:
PAL 16:9 (720x576) VBR
Menu Audio:
Not specified (Dolby AC3, 2 ch)
Menu Subtitles:
Not specified
Menu English Language Unit :
Root Menu

MediaInfo

General
Complete name : J:\Na.igre.Director's cut.2011.DVD-9\VIDEO_TS\VTS_01_1.VOB
Format : MPEG-PS
File size : 1 000 MiB
Duration : 18mn 34s
Overall bit rate mode : Variable
Overall bit rate : 7 533 Kbps
Video
ID : 224 (0xE0)
Format : MPEG Video
Format version : Version 2
Format profile : [email protected]
Format settings, BVOP : Yes
Format settings, Matrix : Default
Format settings, GOP : M=3, N=12
Duration : 18mn 34s
Bit rate mode : Variable
Bit rate : 5 989 Kbps
Maximum bit rate : 9 500 Kbps
Width : 720 pixels
Height : 576 pixels
Display aspect ratio : 16:9
Frame rate : 25.000 fps
Standard : PAL
Color space : YUV
Chroma subsampling : 4:2:0
Bit depth : 8 bits
Scan type : Progressive
Compression mode : Lossy
Bits/(Pixel*Frame) : 0.578
Stream size : 795 MiB (79%)
Audio #1
ID : 189 (0xBD)-128 (0x80)
Format : AC-3
Format/Info : Audio Coding 3
Mode extension : CM (complete main)
Format settings, Endianness : Big
Muxing mode : DVD-Video
Duration : 18mn 33s
Bit rate mode : Constant
Bit rate : 192 Kbps
Channel(s) : 2 channels
Channel positions : Front: L R
Sampling rate : 48.0 KHz
Bit depth : 16 bits
Compression mode : Lossy
Delay relative to video : -80ms
Stream size : 25.5 MiB (3%)
Audio #2
ID : 189 (0xBD)-129 (0x81)
Format : AC-3
Format/Info : Audio Coding 3
Mode extension : CM (complete main)
Format settings, Endianness : Big
Muxing mode : DVD-Video
Duration : 18mn 33s
Bit rate mode : Constant
Bit rate : 448 Kbps
Channel(s) : 6 channels
Channel positions : Front: L C R, Side: L R, LFE
Sampling rate : 48.0 KHz
Bit depth : 16 bits
Compression mode : Lossy
Delay relative to video : -80ms
Stream size : 59.5 MiB (6%)
Audio #3
ID : 189 (0xBD)-138 (0x8A)
Format : DTS
Format/Info : Digital Theater Systems
Muxing mode : DVD-Video
Duration : 18mn 33s
Bit rate mode : Constant
Bit rate : 755 Kbps
Channel(s) : 6 channels
Channel positions : Front: L C R, Side: L R, LFE
Sampling rate : 48.0 KHz
Bit depth : 24 bits
Compression mode : Lossy
Delay relative to video : -80ms
Stream size : 100 MiB (10%)
Menu

Дополнительно

Бонусы: нет

Скриншоты меню

       
Скриншоты:
       
       
Other forum [Profile] [PM]
Display posts from previous:    
Reply to topic

The time now is: Today 22:10

All times are GMT + 3 Hours



You cannot post new topics in this forum
You cannot reply to topics in this forum
You cannot edit your posts in this forum
You cannot delete your posts in this forum
You cannot vote in polls in this forum
You cannot attach files in this forum
You cannot download files in this forum