Today is a free download without charge Download

Космическая одиссея 2010 / 2010: The Year We Make Contact (Питер Хайамс) (Фантастика, Триллер, Детектив, Приключения, 1984) BDRip [720p]

Reply to topic
 
Author
Message

Omen ®

Longevity: 8 years 11 months

Posts: 181086

Торрент-статистика

Post 22-Jun-2013 17:57

[Quote]

Космическая одиссея 2010
2010: The Year We Make Contact
- Русское название: Космическая одиссея 2010
Оригинальное название: 2010: The Year We Make Contact
Год выпуска: 1984
Производство: США
Жанр: Фантастика, Триллер, Детектив, Приключения
Описание фильма:
"Научная фантастика высшего класса!" - Дэвид Пири, "Time Out Film Guide". Новое время, новая одиссея, новый шанс разгадать загадки первой миссии на Юпитер 2001 года. Действие сиквела знаменитого киношедевра Стэнли Кубрика, снятого Питером Хайамсом, происходит спустя девять лет после событий предыдущей картины. Космический корабль "Алексей Леонов" с советско-американским экипажем на борту отправляется на Юпитер, чтобы разгадать тайну оставленного на орбите корабля-первопроходца "Дискавери". Для этого командиру и членам звездного экипажа предстоит вновь активировать выведенный из строя компьютерный мозг HAL-9000, который явился одной из причин провала первой экспедиции.
Удивительная кинематографическая изобретательность (картина получила пять номинаций на премию "Оскар") и невероятно напряженная атмосфера таинственности соединились в этой картине, поставленной по знаменитому роману Артура С. Кларка. Режиссер Питер Хайамс ("Реликт", "Внезапная смерть", "Конец света", "Мушкетер", "Козерог-1") деликатно придерживается основных принципов фирменного стиля маэстро Кубрика, не теряя при этом индивидуальности.
Режиссер: Питер Хайамс
Актеры: Савелий Крамаров, Рой Шайдер, Хелен Миррен, Боб Бэлабан, Кир Дулли, Дуглас Рэйн, Мэдолин Смит-Осборн, Дэна Элкар, Толизин Джаффе, Мэри Джо Дешанель, Илья Баскин, Олег Рудник, Наташа Шнейдер, Владимир Скомаровский, Ян Тришка, Ларри Кэрролл, Херта Уэр, Шерил Картер, Роберт Лессер, Кэндис Берген, Делана Майклс
Перевод: Многоголосый закадровый
Язык субтитров: Русский, Английский
Вид субтитров: Вшитые отключаемые

Дата мировой премьеры: 7 декабря 1984
Продолжительность: 01:55:55
Качество видео: BDRip [720p]
Видео: MPEG-4 AVC, 1280x536 (2.40:1), 23.976 fps, ~4757 Kbps (0.289 bit/pixel)
Аудио #1: AC-3, 48.0 KHz, 6 ch, 640 Kbps, CBR (Английский)
Аудио #2: AC-3, 48.0 KHz, 2 ch, 384 Kbps, CBR (Русский)

МедиаИнфо:

Видео
Идентификатор : 1
Формат : AVC
Формат/Информация : Advanced Video Codec
Профиль формата : [url=mailto:[email protected]][email protected][/url]
Параметр CABAC формата : Да
Параметр ReFrames формата : 5 кадров
Идентификатор кодека : V_MPEG4/ISO/AVC
Продолжительность : 1 ч. 55 м.
Битрейт : 4757 Кбит/сек
Ширина : 1280 пикселей
Высота : 536 пикселей
Соотношение сторон : 2,40:1
Режим частоты кадров : Постоянный
Частота кадров : 23,976 кадра/сек
Цветовое пространство : YUV
Субдискретизация насыщенности : 4:2:0
Битовая глубина : 8 бит
Тип развёртки : Прогрессивная
Бит/(Пиксели*Кадры) : 0.289
Размер потока : 3,76 Гбайт (80%)
Библиотека кодирования : x264 core 67 r1137 1fda882
Настройки программы : cabac=1 / ref=5 / deblock=1:0:0 / analyse=0x3:0x113 / me=umh / subme=7 / psy_rd=1.0:0.0 / mixed_ref=1 / me_range=16 / chroma_me=1 / trellis=1 / 8x8dct=1 / cqm=0 / deadzone=21,11 / chroma_qp_offset=-2 / threads=12 / nr=0 / decimate=1 / mbaff=0 / bframes=3 / b_pyramid=1 / b_adapt=1 / b_bias=0 / direct=1 / wpredb=1 / keyint=250 / keyint_min=25 / scenecut=40 / rc=2pass / bitrate=4757 / ratetol=1.0 / qcomp=0.60 / qpmin=10 / qpmax=51 / qpstep=4 / cplxblur=20.0 / qblur=0.5 / ip_ratio=1.40 / pb_ratio=1.30 / aq=1:1.00
Язык : English
Default : Да
Forced : Нет
Аудио #1
Идентификатор : 3
Формат : AC-3
Формат/Информация : Audio Coding 3
Расширение режима : CM (complete main)
Параметр Endianness формата : Big
Идентификатор кодека : A_AC3
Продолжительность : 1 ч. 55 м.
Вид битрейта : Постоянный
Битрейт : 640 Кбит/сек
Каналы : 6 каналов
Расположение каналов : Front: L C R, Side: L R, LFE
Частота : 48,0 КГц
Битовая глубина : 16 бит
Метод сжатия : С потерями
Размер потока : 531 Мбайт (11%)
Язык : English
Default : Да
Forced : Нет
Аудио #2
Идентификатор : 6
Формат : AC-3
Формат/Информация : Audio Coding 3
Расширение режима : CM (complete main)
Параметр Endianness формата : Big
Идентификатор кодека : A_AC3
Продолжительность : 1 ч. 55 м.
Вид битрейта : Постоянный
Битрейт : 384 Кбит/сек
Каналы : 2 канала
Расположение каналов : Front: L R
Частота : 48,0 КГц
Битовая глубина : 16 бит
Метод сжатия : С потерями
Размер потока : 318 Мбайт (7%)
Заголовок : 3850
Язык : Russian
Default : Нет
Forced : Нет
Текст #1
Идентификатор : 4
Формат : UTF-8
Идентификатор кодека : S_TEXT/UTF8
Идентификатор кодека/Информация : UTF-8 Plain Text
Язык : Russian
Default : Да
Forced : Нет
Текст #2
Идентификатор : 5
Формат : UTF-8
Идентификатор кодека : S_TEXT/UTF8
Идентификатор кодека/Информация : UTF-8 Plain Text
Язык : English
Default : Нет
Forced : Нет

Знаете ли Вы, что...

  • Хотя ни Стэнли Кубрик, снявший «Космическую одиссею 2001 года», ни Артур Кларк, написавший «Одиссею два», не принимали непосредственного участия в съёмках фильма, его создатели нашли оригинальный способ отдать должное творцам первого фильма. Если прочитать фамилию командира СССР Татьяны Кирбук наоборот, то получится фамилия Кубрик. Так же Стэнли Кубрик изображён в «2010» в образе советского премьера, а Артур Кларк представлен в образе американского президента. Вместе они появляются в одной из сцен фильма на фотографии, размещённой на обложке журнала. Кроме того, Кларк сыграл эпизодическую роль мужчины, сидящего на скамье близ Белого дома.
  • Согласно сюжету фильма, космический корабль «Алексей Леонов» первоначально предполагалось назвать в честь космонавта N 2 Германа Титова. Название было изменено, поскольку Титов каким-то образом «потерял покровительство руководства». В этом контексте странным представляется то, что двигатели «Леонова» носят имя Андрея Сахарова, находившегося в оппозиции к советскому режиму с конца 60-ых (это противоречие разрешается в романе Кларка).
  • Роль доктора Владимира Руденко в фильме исполнил Савелий Крамаров, эмигрировавший в США в 1981, а Максима Брайловского сыграл его друг Илья Баскин, имигрировавший в США ранее.
  • Дизайн «Леонова» в фильме повлиял на изображение многих космических аппаратов в кинофантастике. Например, в телесериале «Вавилон-5» по образцу «Леонова» спроектированы военные корабли класса «Омега».
  • В фильме Хейвуд Флойд работает на персональных компьютерах Macintosh и Apple IIc. Это один из первых случаев изображения в игровом кино продукции корпорации «Apple».
    СПОЙЛЕРОШИБКА
  • Кубрик после съемок «Космической одиссеи 2001» уничтожил модель космического корабля, для того, чтобы не было никаких римейков, однако бригада Питера Хаймса все восстановила по картинкам и кадрам из фильма.
  • Советская космическая станция называется «Сергей Киров».
    Фото Стэнли Кубрика выдается на обложке журнала «Тайм» за фото генерального секретаря СССР, а фото Артура Си Кларка — за фото президента США.
Скриншоты:
         
         
Other forum [Profile] [PM]
Display posts from previous:    
Reply to topic

The time now is: Today 14:31

All times are GMT + 3 Hours



You cannot post new topics in this forum
You cannot reply to topics in this forum
You cannot edit your posts in this forum
You cannot delete your posts in this forum
You cannot vote in polls in this forum
You cannot attach files in this forum
You cannot download files in this forum