Today is a free download without charge Download

Avril Lavigne - 'Here's To Never Growing Up' (Live @ The Voice UK) [2013, Rock / Pop, HDTV 1080i]

Reply to topic
 
Author
Message

Omen ®

Longevity: 8 years 4 months

Posts: 181087

Торрент-статистика

Post 22-Jun-2013 04:55

[Quote]

Avril Lavigne - 'Here's To Never Growing Up'
(Live @ The Voice UK)


Жанр: Rock / Pop
Продолжительность: 00:03:57
Год выпуска: 15/06/2013
Качество: HDTV 1080i
Контейнер: TS
Видео кодек: H.264
Аудио кодек: MP2
Видео: MPEG4 Video (H264) 1920x1080i 25fps 11.7Mbps
Аудио: MPEG Audio 48000Hz stereo 256kbps

Отчёт MediaInfo

ОбщееИдентификатор : 1 (0x1)Полное имя : C:\4torrent\vidzzz\Avril Lavigne - 'Here's To Never Growing Up' (Live @ The Voice UK 15.06.2013) 1080i.tsФормат : MPEG-TSРазмер файла : 356 МбайтПродолжительность : 3 м. 56 с.Режим общего битрейта : ПеременныйОбщий поток : 12,6 Мбит/секМаксимальный общий битрейт : 35,5 Мбит/сек
ВидеоИдентификатор : 4113 (0x1011)Идентификатор меню : 1 (0x1)Формат : AVCФормат/Информация : Advanced Video CodecПрофиль формата : [email protected]Параметр CABAC формата : ДаПараметр ReFrames формата : 3 кадраПараметр GOP формата : M=3, N=33Идентификатор кодека : 27Продолжительность : 3 м. 56 с.Вид битрейта : ПеременныйБитрейт : 11,7 Мбит/секМаксимальный битрейт : 18,0 Мбит/секШирина : 1920 пикселейВысота : 1080 пикселейСоотношение сторон : 16:9Частота кадров : 25,000 кадров/секСтандарт вещания : PALЦветовое пространство : YUVСубдискретизация насыщенности : 4:2:0Битовая глубина : 8 битТип развёртки : ЧересстрочнаяПорядок развёртки : Верхнее поле первоеБит/(Пиксели*Кадры) : 0.227Размер потока : 331 Мбайт (93%)Основные цвета : BT.709Характеристики трансфера : BT.709Коэффициенты матрицы : BT.709
АудиоИдентификатор : 4352 (0x1100)Идентификатор меню : 1 (0x1)Формат : MPEG AudioВерсия формата : Version 1Профиль формата : Layer 2Идентификатор кодека : 4Продолжительность : 3 м. 56 с.Вид битрейта : ПостоянныйБитрейт : 256 Кбит/секКаналы : 2 каналаЧастота : 48,0 КГцМетод сжатия : С потерямиРазмер потока : 7,22 Мбайт (2%)Язык : English

Скриншоты


Other forum [Profile] [PM]
Display posts from previous:    
Reply to topic

The time now is: Today 14:04

All times are GMT + 3 Hours



You cannot post new topics in this forum
You cannot reply to topics in this forum
You cannot edit your posts in this forum
You cannot delete your posts in this forum
You cannot vote in polls in this forum
You cannot attach files in this forum
You cannot download files in this forum