Today is a free download without charge Download

Soud City (русская озвучка) [2013, Rock, Documentary, BDRip 720p]

Reply to topic
 
Author
Message

Omen ®

Longevity: 8 years 3 months

Posts: 181087

Торрент-статистика

Post 20-Jun-2013 10:31

[Quote]

Soud City (русская озвучка)
Жанр: Rock, Documentary
Продолжительность: 01:47:16
Год выпуска: 2013
Описание: Документальный фильм Дейва Грола об истории лос-анджелесской студии Sound City. Идея снять фильм пришла Гролу в 2011-м, после того, как в Ван Нойсе, штат Калифорния, закрылась студия Sound City. Он купил на распродаже оборудования студии пульт Neve, на котором записывались Metallica, Nine Inch Nails, Guns N’ Roses, Rage Against the Machine и многие другие легендарные коллективы (культовый альбом Nevermind группы Nirvana — в их числе).
Свои воспоминания о Sound City в документальном фильме рассказывают Том Петти, Трент Резнор, Нил Янг, Ларс Ульрих (Metallica), Джон Фогерти, Джош Омм (Queens Of The Stone Age), Линдси Бакингем и Мик Флитвуд (Fleetwood Мас), Фрэнк Блэк, продюсеры Батч Виг и Рик Рубин и многие другие рок-герои. «Это фильм о правде, о ремесле и о целостности рок-н-ролла», — написал Грол в пресс-релизе, разосланном журналистам студией Roswell, на которой снималась картина.
Фильм был представлен 18 января на фестивале "Сандэнс", там же состоялся дебют супергруппы Sound City Players, состоящей из героев картины Грола.
Качество: BDRip 720p
Контейнер: MKV
Видео кодек: H.264
Аудио кодек: DTS
Видео: 1280x720 (16:9), 4003 Kbps, 23.976 fps
Аудио: русский / DTS / 5.1 / 48 kHz / 1510 kbps / 24 bit
Аудио 2: английский / DTS / 5.1 / 48 kHz / 1510 kbps / 24 bit

Отчёт MediaInfo / BDInfo

ОбщееУникальный идентификатор : 240262056695841616690889909121727843729 (0xB4C0C9F890C4886DB117E074387FCD91)Полное имя : C:\Users\Администратор\Videos\Sound.City.2013.BDRip.720p.mkvФормат : MatroskaВерсия формата : Version 2Размер файла : 5,26 ГбайтПродолжительность : 1 ч. 47 м.Общий поток : 7020 Кбит/секДата кодирования : UTC 2013-06-19 22:03:57Программа кодирования : mkvmerge v5.4.0 ('Piper') built on Mar 10 2012 13:34:39Библиотека кодирования : libebml v1.2.3 + libmatroska v1.3.0
ВидеоИдентификатор : 1Формат : AVCФормат/Информация : Advanced Video CodecПрофиль формата : [email protected]Параметр CABAC формата : ДаПараметр ReFrames формата : 9 кадровРежим смешивания : Header strippingИдентификатор кодека : V_MPEG4/ISO/AVCПродолжительность : 1 ч. 47 м.Битрейт : 3861 Кбит/секШирина : 1280 пикселейВысота : 720 пикселейСоотношение сторон : 16:9Режим частоты кадров : ПостоянныйЧастота кадров : 23,976 кадра/секЦветовое пространство : YUVСубдискретизация насыщенности : 4:2:0Битовая глубина : 8 битТип развёртки : ПрогрессивнаяБит/(Пиксели*Кадры) : 0.175Размер потока : 2,89 Гбайт (55%)Библиотека кодирования : x264 core 129 r2245 bc13772Настройки программы : cabac=1 / ref=9 / deblock=1:-1:-1 / analyse=0x3:0x133 / me=umh / subme=9 / psy=1 / psy_rd=1.00:0.15 / mixed_ref=1 / me_range=24 / chroma_me=1 / trellis=2 / 8x8dct=1 / cqm=0 / deadzone=21,11 / fast_pskip=0 / chroma_qp_offset=-3 / threads=12 / lookahead_threads=2 / sliced_threads=0 / nr=0 / decimate=1 / interlaced=0 / bluray_compat=0 / constrained_intra=0 / bframes=6 / b_pyramid=2 / b_adapt=2 / b_bias=0 / direct=3 / weightb=1 / open_gop=0 / weightp=2 / keyint=240 / keyint_min=23 / scenecut=40 / intra_refresh=0 / rc=crf / mbtree=0 / crf=19.0 / qcomp=0.60 / qpmin=0 / qpmax=69 / qpstep=4 / ip_ratio=1.40 / pb_ratio=1.30 / aq=1:1.00Язык : EnglishDefault : ДаForced : НетОсновные цвета : BT.709Характеристики трансфера : BT.709Коэффициенты матрицы : BT.709
Аудио #1Идентификатор : 2Формат : DTSФормат/Информация : Digital Theater SystemsРежим : 16Параметр Endianness формата : BigРежим смешивания : Header strippingИдентификатор кодека : A_DTSПродолжительность : 1 ч. 47 м.Вид битрейта : ПостоянныйБитрейт : 1510 Кбит/секКаналы : 6 каналовРасположение каналов : Front: L C R, Side: L R, LFEЧастота : 48,0 КГцБитовая глубина : 24 битМетод сжатия : С потерямиРазмер потока : 1,13 Гбайт (22%)Заголовок : DTS RUS 5.1 1509 kbpsЯзык : RussianDefault : ДаForced : Нет
Аудио #2Идентификатор : 3Формат : DTSФормат/Информация : Digital Theater SystemsРежим : 16Параметр Endianness формата : BigРежим смешивания : Header strippingИдентификатор кодека : A_DTSПродолжительность : 1 ч. 47 м.Вид битрейта : ПостоянныйБитрейт : 1510 Кбит/секКаналы : 6 каналовРасположение каналов : Front: L C R, Side: L R, LFEЧастота : 48,0 КГцБитовая глубина : 24 битМетод сжатия : С потерямиРазмер потока : 1,13 Гбайт (22%)Заголовок : DTS 5.1 1509 KbpsЯзык : EnglishDefault : НетForced : Нет
Текст #1Идентификатор : 4Формат : UTF-8Идентификатор кодека : S_TEXT/UTF8Идентификатор кодека/Информация : UTF-8 Plain TextЗаголовок : RUЯзык : RussianDefault : НетForced : Нет
Текст #2Идентификатор : 5Формат : UTF-8Идентификатор кодека : S_TEXT/UTF8Идентификатор кодека/Информация : UTF-8 Plain TextЗаголовок : ENGЯзык : EnglishDefault : НетForced : Нет
Меню00:00:00.000 : en:00:00:00.00000:04:48.330 : en:00:04:48.33000:09:14.220 : en:00:09:14.22000:15:33.349 : en:00:15:33.34900:24:50.155 : en:00:24:50.15500:33:03.773 : en:00:33:03.77300:40:06.946 : en:00:40:06.94600:49:17.788 : en:00:49:17.78800:55:27.199 : en:00:55:27.19901:01:39.112 : en:01:01:39.11201:08:25.310 : en:01:08:25.31001:15:10.965 : en:01:15:10.96501:23:43.101 : en:01:23:43.10101:29:08.802 : en:01:29:08.80201:39:52.403 : en:01:39:52.403




Other forum [Profile] [PM]
Display posts from previous:    
Reply to topic

The time now is: Today 07:22

All times are GMT + 3 Hours



You cannot post new topics in this forum
You cannot reply to topics in this forum
You cannot edit your posts in this forum
You cannot delete your posts in this forum
You cannot vote in polls in this forum
You cannot attach files in this forum
You cannot download files in this forum