Today is a free download without charge Download

Muse - Panic Station [2013, Alternative, HDTV 1080i]

Reply to topic
 
Author
Message

Omen ®

Longevity: 8 years 3 months

Posts: 181087

Торрент-статистика

Post 20-Jun-2013 02:25

[Quote]

Muse - Panic Station- Жанр: Alternative
Продолжительность: 00:03:29
Год выпуска: 2013
Качество: HDTV 1080i
Контейнер: TS
Видео кодек: H.264
Аудио кодек: AC3
Видео: H.264; 1920x1080; 9 320 Kbps ; 25.000 fps
Аудио: AC-3; 384 Kbps; 48,0 КГц; 6 ch
Аудио 2: AC-3; 256 Kbps; 48,0 КГц; 2 ch

Отчёт MediaInfo

Complete name : Muse - Panic Station.tsFormat : MPEG-TSFile size : 262 MiBDuration : 3mn 29sOverall bit rate mode : VariableOverall bit rate : 10.5 Mbps
VideoID : 171 (0xAB)Menu ID : 9312 (0x2460)Format : AVCFormat/Info : Advanced Video CodecFormat profile : [email protected] settings, CABAC : YesFormat settings, ReFrames : 4 framesCodec ID : 27Duration : 3mn 29sBit rate : 9 320 KbpsWidth : 1 920 pixelsHeight : 1 080 pixelsDisplay aspect ratio : 16:9Frame rate : 25.000 fpsColor space : YUVChroma subsampling : 4:2:0Bit depth : 8 bitsScan type : MBAFFBits/(Pixel*Frame) : 0.180Stream size : 232 MiB (89%)Encryption : Seca Mediaguard 1/2Color primaries : BT.709Transfer characteristics : BT.709Matrix coefficients : BT.709
Audio #1ID : 125 (0x7D)Menu ID : 9312 (0x2460)Format : AC-3Format/Info : Audio Coding 3Mode extension : CM (complete main)Format settings, Endianness : BigCodec ID : 6Duration : 3mn 28sBit rate mode : ConstantBit rate : 384 KbpsChannel(s) : 6 channelsChannel positions : Front: L C R, Side: L R, LFESampling rate : 48.0 KHzBit depth : 16 bitsCompression mode : LossyDelay relative to video : 28msStream size : 9.57 MiB (4%)Language : FrenchEncryption : Seca Mediaguard 1/2
Audio #2ID : 126 (0x7E)Menu ID : 9312 (0x2460)Format : AC-3Format/Info : Audio Coding 3Format profile : Dolby DigitalMode extension : CM (complete main)Format settings, Endianness : BigCodec ID : 6Duration : 3mn 28sBit rate mode : ConstantBit rate : 256 KbpsChannel(s) : 2 channelsChannel positions : Front: L RSampling rate : 48.0 KHzBit depth : 16 bitsCompression mode : LossyDelay relative to video : 21msStream size : 6.38 MiB (2%)Language : EnglishEncryption : Seca Mediaguard 1/2

Скриншоты

Other forum [Profile] [PM]
Display posts from previous:    
Reply to topic

The time now is: Today 04:19

All times are GMT + 3 Hours



You cannot post new topics in this forum
You cannot reply to topics in this forum
You cannot edit your posts in this forum
You cannot delete your posts in this forum
You cannot vote in polls in this forum
You cannot attach files in this forum
You cannot download files in this forum