Today is a free download without charge Download

Billy Joel • New Orleans Jazz and Heritage Festival [2013, Rock, HDTVRip 1080i]

Reply to topic
 
Author
Message

Omen ®

Longevity: 8 years 4 months

Posts: 181087

Торрент-статистика

Post 19-Jun-2013 18:17

[Quote]


Billy Joel
• New Orleans Jazz and Heritage Festival •


Жанр: Rock
Продолжительность: 00:22:53
Год выпуска: April 27, 2013

Треклист

01. Intro
02. Miami 2017 (Seen The Lights Go Out On Broadway)
03. Big Man On Mulberry Street
04. Root Beer Rag
05. Scenes From An Italian Restaurant
Качество: HDTVRip 1080i
Контейнер: MKV
Видео кодек: H.264
Аудио кодек: AC3
Видео: MPEG4 Video (H264) 1920x1080 29.97fps 8331 Kbps
Аудио: Dolby AC3 48000Hz 6ch 384 Kbps

Отчёт MediaInfo / BDInfo

GeneralUnique ID : 248044620510615457372969926913171458682 (0xBA9BA7FDF0762FAF81E24B6C1D9D0A7A)Complete name : E:\Billy Joel - New Orleans Jazz and Heritage Festival - 2013-04-27.mkvFormat : MatroskaFormat version : Version 2File size : 1.42 GiBDuration : 22mn 52sOverall bit rate : 8 892 KbpsEncoded date : UTC 2013-06-19 13:41:59Writing application : mkvmerge v6.2.0 ('Promised Land') built on Apr 28 2013 12:22:01Writing library : libebml v1.3.0 + libmatroska v1.4.0
VideoID : 1Format : AVCFormat/Info : Advanced Video CodecFormat profile : [email protected] settings, CABAC : YesFormat settings, ReFrames : 4 framesCodec ID : V_MPEG4/ISO/AVCDuration : 22mn 52sBit rate : 8 331 KbpsWidth : 1 920 pixelsHeight : 1 080 pixelsDisplay aspect ratio : 16:9Frame rate mode : ConstantFrame rate : 29.970 fpsStandard : ComponentColor space : YUVChroma subsampling : 4:2:0Bit depth : 8 bitsScan type : MBAFFBits/(Pixel*Frame) : 0.134Stream size : 1.33 GiB (94%)Default : YesForced : NoColor primaries : BT.709Transfer characteristics : BT.709Matrix coefficients : BT.709
AudioID : 2Format : AC-3Format/Info : Audio Coding 3Mode extension : CM (complete main)Format settings, Endianness : BigCodec ID : A_AC3Duration : 22mn 52sBit rate mode : ConstantBit rate : 384 KbpsChannel(s) : 6 channelsChannel positions : Front: L C R, Side: L R, LFESampling rate : 48.0 KHzBit depth : 16 bitsCompression mode : LossyStream size : 62.8 MiB (4%)Default : YesForced : No
Other forum [Profile] [PM]
Display posts from previous:    
Reply to topic

The time now is: Today 01:57

All times are GMT + 3 Hours



You cannot post new topics in this forum
You cannot reply to topics in this forum
You cannot edit your posts in this forum
You cannot delete your posts in this forum
You cannot vote in polls in this forum
You cannot attach files in this forum
You cannot download files in this forum