Today is a free download without charge Download

Хайтарма / Haytarma (Ахтем Сейтаблаев) (Драма, Военный, История, 2013) HDRip

Reply to topic
 
Author
Message

Omen ®

Longevity: 8 years 10 months

Posts: 181086

Торрент-статистика

Post 19-Jun-2013 12:04

[Quote]

Хайтарма / Haytarma - Русское название: Хайтарма
Страна: Украина
Год выпуска: 2013
Жанр: Драма, Военный, История
Описание фильма:
Фильм рассказывает о трагической дате в истории крымскотатарского народа — 18 мая 1944 года — сталинской депортации крымских татар. В центре сюжета фильма — летчик, дважды герой Советского Союза, Аметхан Султан. В мае 44-го года после осовобождения Севастополя Аметхан отправляется в отпуск в родную Алупку. На его глазах 18 мая и начинается депортация крымских татар.
Режиссер: Ахтем Сейтаблаев
Актеры: Ахтем Сейтаблаев, Алексей Горбунов, Усние Халилова, Андрей Мостренко, Андрей Саминин, Валерий Шаповалов, Юрий Цурило, Леся Самаева, Алексей Тритенко, Дмитрий Суржиков
Продолжительность: 1:25:31

Видеокодек: MPEG-4 AVC/H.264
Битрейт видео: ~3827 kb/s
Размер кадра: 1280x720
Качество видео: HDRip
Аудиокодек: AAC
Битрейт аудио: ~165 kb/s VBR 2.0

MediaInfo

Общее
Полное имя : G:\Dowloands\Фильмы\Хайтарма.mp4
Формат : MPEG-4
Профиль формата : Base Media
Идентификатор кодека : isom
Размер файла : 2,39 Гбайт
Продолжительность : 1 ч. 25 м.
Режим общего битрейта : Переменный
Общий поток : 3997 Кбит/сек
Программа кодирования : Lavf52.93.0
Видео
Идентификатор : 1
Формат : MPEG-4 Visual
Профиль формата : [email protected]
Параметр BVOP формата : Нет
Параметр QPel формата : Нет
Параметр GMC формата : Без точки перехода
Параметр матрицы формата : Default (H.263)
Идентификатор кодека : 20
Продолжительность : 1 ч. 25 м.
Битрейт : 3827 Кбит/сек
Ширина : 1280 пикселей
Высота : 720 пикселей
Соотношение сторон : 16:9
Режим частоты кадров : Постоянный
Частота кадров : 25,000 кадров/сек
Цветовое пространство : YUV
Субдискретизация насыщенности : 4:2:0
Битовая глубина : 8 бит
Тип развёртки : Прогрессивная
Метод сжатия : С потерями
Бит/(Пиксели*Кадры) : 0.166
Размер потока : 2,29 Гбайт (96%)
Библиотека кодирования : Lavc52.108.0
Аудио
Идентификатор : 2
Формат : AAC
Формат/Информация : Advanced Audio Codec
Профиль формата : LC
Идентификатор кодека : 40
Продолжительность : 1 ч. 25 м.
Вид битрейта : Переменный
Битрейт : 165 Кбит/сек
Каналы : 2 канала
Расположение каналов : Front: L R
Частота : 48,0 КГц
Метод сжатия : С потерями
Размер потока : 101 Мбайт (4%)
Скриншоты:
       
Other forum [Profile] [PM]
Display posts from previous:    
Reply to topic

The time now is: Today 21:20

All times are GMT + 3 Hours



You cannot post new topics in this forum
You cannot reply to topics in this forum
You cannot edit your posts in this forum
You cannot delete your posts in this forum
You cannot vote in polls in this forum
You cannot attach files in this forum
You cannot download files in this forum