Today is a free download without charge Download

Бобер / The Beaver (Джоди Фостер) [2011 г., драма DVD9 R5] «Вольга»

Reply to topic
 
Author
Message

sassad ®

Gender:

Longevity: 8 years 7 months

Posts: 1214

Location: Галич

Торрент-статистика

Post 21-Aug-2011 12:51

[Quote]

Бобер / The Beaver--
Год выпуска: 2011
Страна: США, ОАЭ
Жанр: драма
Продолжительность: 91 мин.
Перевод: Профессиональный (полное дублирование)[Лицензия]-Режиссер: Джоди Фостер
Продюссер: Стив Голин, Кейт Рэдмон, Энн Рурк
Сценарий: Кайл Киллен
Бюджет: $21 000 000
Премьера в мире: 16 марта 2011

В ролях: Мэл Гибсон, Джоди Фостер, Черри Джонс, Антон Ельчин, Райли Стюарт, Захари Бут, Дженнифер Лоуренс, Джефф Корбетт, Бэйлен Томас, Сэм Бреслин Райт-Описание: Уолтер Блэк — успешный бизнесмен, счастливый муж и отец. Одно несчастье — депрессия отравляет все его существование. Полноту и радость жизни Уолтеру возвращает... кукла бобер. Надев ее на руку, Уолтер обретает второе дыхание. Говорящий бобер восстанавливает мир в его отношениях с женой, делает Уолтера кумиром детей и даже берет на себя управление компанией. Родные и близкие в шоке от эксцентричного поведения Уолтера, но он уже и сам не знает, кто главнее — он или бобер.-Качество:DVD9 R5
Формат:DVD-Video
Видеокодек: MPEG-2
Битрейт видео: ~6175 kb/s
Размер кадра: PAL 16:9 (720x576)
Аудиокодек и битрейт аудио:
Аудио #1: Английский ( AC3, 6 ch, 448 kb/s)
Аудио #2: Русский ( AC3, 6 ch, 448 kb/s )
Аудио #3: Русский ( DTS, 6 ch, 1510 kb/s )

MediaInfo

Общее
Полное имя : D:\Бобер\Бобер\VIDEO_TS\VTS_03_1.VOB
Формат : MPEG-PS
Размер файла : 1024 Мбайт
Продолжительность : 16 м.
Общий поток : 8755 Кбит/сек
Видео
Идентификатор : 224 (0xE0)
Формат : MPEG Video
Версия формата : Version 2
Профиль формата : [email protected]
Параметр BVOP формата : Да
Параметр матрицы формата : Выборочная
Параметр GOP формата : M=3, N=15
Продолжительность : 16 м.
Вид битрейта : Переменный
Битрейт : 6175 Кбит/сек
Максимальный битрейт : 8000 Кбит/сек
Ширина : 720 пикселей
Высота : 576 пикселей
Соотношение сторон : 4:3
Частота кадров : 25,000 кадров/сек
Стандарт вещания : PAL
Цветовое пространство : YUV
Субдискретизация насыщенности : 4:2:0
Битовая глубина : 8 бит
Тип развёртки : Прогрессивная
Метод сжатия : С потерями
Бит/(Пиксели*Кадры) : 0.596
Размер потока : 722 Мбайт (71%)
Аудио #1
Идентификатор : 189 (0xBD)-128 (0x80)
Формат : AC-3
Формат/Информация : Audio Coding 3
Расширение режима : CM (complete main)
Режим смешивания : DVD-Video
Продолжительность : 16 м.
Вид битрейта : Постоянный
Битрейт : 448 Кбит/сек
Каналы : 6 каналов
Расположение каналов : Front: L C R, Side: L R, LFE
Частота : 48,0 КГц
Битовая глубина : 16 бит
Метод сжатия : С потерями
Задержка видео : 184 мс.
Размер потока : 52,4 Мбайт (5%)
Аудио #2
Идентификатор : 189 (0xBD)-130 (0x82)
Формат : AC-3
Формат/Информация : Audio Coding 3
Расширение режима : CM (complete main)
Режим смешивания : DVD-Video
Продолжительность : 16 м.
Вид битрейта : Постоянный
Битрейт : 448 Кбит/сек
Каналы : 6 каналов
Расположение каналов : Front: L C R, Side: L R, LFE
Частота : 48,0 КГц
Битовая глубина : 16 бит
Метод сжатия : С потерями
Задержка видео : 184 мс.
Размер потока : 52,4 Мбайт (5%)
Аудио #3
Идентификатор : 189 (0xBD)-137 (0x89)
Формат : DTS
Формат/Информация : Digital Theater Systems
Режим смешивания : DVD-Video
Продолжительность : 16 м.
Вид битрейта : Постоянный
Битрейт : 1510 Кбит/сек
Каналы : 6 каналов
Расположение каналов : Front: L C R, Side: L R, LFE
Частота : 48,0 КГц
Битовая глубина : 24 бит
Метод сжатия : С потерями
Задержка видео : 184 мс.
Размер потока : 176 Мбайт (17%)
Текст #1
Идентификатор : 189 (0xBD)-32 (0x20)
Формат : RLE
Формат/Информация : Run-length encoding
Режим смешивания : DVD-Video
Текст #2
Идентификатор : 189 (0xBD)-33 (0x21)
Формат : RLE
Формат/Информация : Run-length encoding
Режим смешивания : DVD-Video
Меню

DVDInfo

Title: Бобер
Size: 6.64 Gb ( 6 961 634,00 KBytes ) - DVD-9
Enabled regions: 1, 2, 3, 4, 5, 6, 7, 8
VTS_01 :
Play Length: 00:00:07
Video: PAL 4:3 (720x576) VBR
VTS_02 :
Play Length: 00:00:06
Video: PAL 4:3 (720x576) VBR
VTS_03 :
Play Length: 01:27:17
Video: PAL 16:9 (720x576) VBR, Auto Letterboxed
Audio:
Russian (Dolby AC3, 6 ch)
Russian (DTS, 5 ch)
English (Dolby AC3, 6 ch)
Subtitles:
Russian
Russian
VTS_04 :
Play Length: 00:17:12
Video: PAL 16:9 (720x576) VBR, Auto Letterboxed
Audio:
English (Dolby AC3, 2 ch)
Subtitles:
Russian
VTS_05 :
Play Length: 00:12:08
Video: PAL 16:9 (720x576) VBR, Auto Letterboxed
Audio:
English (Dolby AC3, 2 ch)
VTS_06 :
Play Length: 00:02:29
Video: PAL 16:9 (720x576) VBR, Auto Letterboxed
Audio:
Not specified (Dolby AC3, 2 ch)
Not specified (Dolby AC3, 2 ch)
Not specified (Dolby AC3, 2 ch)
VTS_07 :
Play Length: 00:02:02
Video: PAL 16:9 (720x576) VBR, Auto Letterboxed
Audio:
Not specified (Dolby AC3, 6 ch)
Not specified (Dolby AC3, 6 ch)
Not specified (Dolby AC3, 6 ch)
VTS_08 :
Play Length: 00:01:58
Video: PAL 16:9 (720x576) VBR, Auto Letterboxed
Audio:
Not specified (Dolby AC3, 2 ch)
VTS_09 :
Play Length: 00:02:00
Video: PAL 16:9 (720x576) VBR, Auto Letterboxed
Audio:
Not specified (Dolby AC3, 2 ch)
VTS_10 :
Play Length: 00:02:18
Video: PAL 16:9 (720x576) VBR, Auto Letterboxed
Audio:
Not specified (Dolby AC3, 2 ch)
VTS_11 :
Play Length: 00:02:31
Video: PAL 16:9 (720x576) VBR, Auto Letterboxed
Audio:
Not specified (Dolby AC3, 2 ch)
VTS_12 :
Play Length: 00:02:14
Video: PAL 16:9 (720x576) VBR, Auto Letterboxed
Audio:
Not specified (Dolby AC3, 2 ch)

Скриншоты меню

   

Скриншоты

    [thumbnails][/thumbnails] 

_________________


Last edited by sassad on 2011-08-24 17:28; edited 4 times in total
Other forum [Profile] [PM]

Nugeiro

Gender:

Longevity: 8 years 7 months

Posts: 1981

Location: Украина, Шостка

Торрент-статистика

Post 23-Aug-2011 23:29 (after 2 days 10 hours)

[Quote]

sassad
В заголовке укажи Качество!

_________________
Other forum [Profile] [PM]
Display posts from previous:    
Reply to topic

The time now is: Today 08:50

All times are GMT + 3 Hours



You cannot post new topics in this forum
You cannot reply to topics in this forum
You cannot edit your posts in this forum
You cannot delete your posts in this forum
You cannot vote in polls in this forum
You cannot attach files in this forum
You cannot download files in this forum