Today is a free download without charge Download

Coldplay - Live at the BBC (Full) [2008, Rock, HDTV 1080i]

Reply to topic
 
Author
Message

Omen ®

Longevity: 8 years 3 months

Posts: 181087

Торрент-статистика

Post 19-Jun-2013 06:01

[Quote]


- At The BBC -


Жанр: Rock
Продолжительность: 00:48:56
Год выпуска: 2008

Треклист

01. Life in Technicolor
02. Violet Hill
03. Interview I
04. Clocks
05. In My Place
06. Interview II
07. Viva La Vida
08. 42
09. Interview III
10. Trouble
11. Lost!
12. Interview IV
13. Yellow (Acoustic)
14. Fix You
15. Lovers In Japan
Качество: HDTV 1080i
Контейнер: TS
Видео кодек: H.264
Аудио кодек: AC3
Видео: MPEG4 Video (H264) 1440x1080 (20:11) 25fps 15.7 Mbps
Аудио: Dolby AC3 48000Hz 6ch 384kbps 384 Kbps

Отчёт MediaInfo / BDInfo

GeneralID : 1 (0x1)Complete name : E:\Coldplay Live at the BBC (18-06-2008).tsFormat : MPEG-TSFile size : 5.79 GiBDuration : 48mn 55sOverall bit rate mode : VariableOverall bit rate : 16.9 MbpsMaximum Overall bit rate : 35.5 Mbps
VideoID : 4113 (0x1011)Menu ID : 1 (0x1)Format : AVCFormat/Info : Advanced Video CodecFormat profile : [email protected] settings, CABAC : YesFormat settings, ReFrames : 2 framesCodec ID : 27Duration : 48mn 55sBit rate : 15.7 MbpsWidth : 1 440 pixelsHeight : 1 080 pixelsDisplay aspect ratio : 16:9Frame rate : 25.000 fpsColor space : YUVChroma subsampling : 4:2:0Bit depth : 8 bitsScan type : MBAFFBits/(Pixel*Frame) : 0.404Stream size : 5.37 GiB (93%)
AudioID : 4352 (0x1100)Menu ID : 1 (0x1)Format : AC-3Format/Info : Audio Coding 3Mode extension : CM (complete main)Format settings, Endianness : BigCodec ID : 129Duration : 48mn 55sBit rate mode : ConstantBit rate : 384 KbpsChannel(s) : 6 channelsChannel positions : Front: L C R, Side: L R, LFESampling rate : 48.0 KHzBit depth : 16 bitsCompression mode : LossyDelay relative to video : -633msStream size : 134 MiB (2%)

Скриншоты (анаморф)

Other forum [Profile] [PM]
Display posts from previous:    
Reply to topic

The time now is: Today 13:10

All times are GMT + 3 Hours



You cannot post new topics in this forum
You cannot reply to topics in this forum
You cannot edit your posts in this forum
You cannot delete your posts in this forum
You cannot vote in polls in this forum
You cannot attach files in this forum
You cannot download files in this forum