Today is a free download without charge Download

(OST) Некий научный рейлган / To Aru Kagaku no Railgun (only my railgun (single)) - 2009 г., FLAC (tracks+.cue), lossless

Reply to topic
 
Author
Message

Omen ®

Longevity: 9 years 1 month

Posts: 181086

Торрент-статистика

Post 16-Jun-2013 16:58

[Quote]

Некий научный рейлган / To Aru Kagaku no Railgun
Название альбома: only my railgun (single)
Год выпуска: 2009 г.
Страна: Япония
Аудио кодек: FLAC (*.flac)
Тип рипа: tracks+.cue
Битрейт аудио: lossless
Продолжительность: 20:49
Наличие сканов в содержимом раздачи: нет
Треклист:
1. only my railgun
2. late in autumn
3. only my railgun -instrumental-
4. late in autumn -instrumental-

Лог создания рипа

X Lossless Decoder version 20130407 (143.0)
XLD AccurateRip checking logfile
TOC of the selected file Track | Start | Length | Start sector | End sector --------------------------------------------------------- 1 | 00:00:00 | 04:17:07 | 0 | 19281 2 | 04:17:07 | 06:09:32 | 19282 | 46988 3 | 10:26:39 | 04:16:67 | 46989 | 66255 4 | 14:43:31 | 06:06:24 | 66256 | 93729
List of alternate offset correction values (1) 30 (confidence 29)
AccurateRip Summary (DiscID: 000373d1-000def36-3704e104) Track 01 : OK (v1+v2, confidence 29/29, with different offset) Track 02 : OK (v1+v2, confidence 27/27, with different offset) Track 03 : OK (v1+v2, confidence 22/22, with different offset) Track 04 : OK (v1+v2, confidence 19/19, with different offset) ->All tracks accurately ripped.
All Tracks Album gain : -12.23 dB Peak : 1.000000 CRC32 hash : 17ADE4B6 CRC32 hash (skip zero) : EFBDB881
Track 01 Track gain : -13.24 dB Peak : 1.000000 CRC32 hash : 5EBD51AA CRC32 hash (skip zero) : 1CEF3774 AccurateRip v1 signature : D3B0CCA6 (9B68FAE4 w/correction) AccurateRip v2 signature : 15CE36FA (D3A26367 w/correction) ->Accurately ripped with different offset (v1+v2, confidence 26+3/29, offset +30)
Track 02 Track gain : -11.80 dB Peak : 1.000000 CRC32 hash : 010E41F7 CRC32 hash (skip zero) : 646EA479 AccurateRip v1 signature : E51B0C26 (5D11F280 w/correction) AccurateRip v2 signature : 174254F1 (80B01E71 w/correction) ->Accurately ripped with different offset (v1+v2, confidence 24+3/27, offset +30)
Track 03 Track gain : -12.02 dB Peak : 1.000000 CRC32 hash : 79777A1C CRC32 hash (skip zero) : 8BCF14DB AccurateRip v1 signature : 0A911ED1 (F6B4E8A3 w/correction) AccurateRip v2 signature : 902FA833 (72724643 w/correction) ->Accurately ripped with different offset (v1+v2, confidence 19+3/22, offset +30)
Track 04 Track gain : -9.99 dB Peak : 1.000000 CRC32 hash : ECA99373 CRC32 hash (skip zero) : DC9DA440 AccurateRip v1 signature : 71E79654 (30FDCD9C w/correction) AccurateRip v2 signature : BE2C36F3 (6EB9CE52 w/correction) ->Accurately ripped with different offset (v1+v2, confidence 17+2/19, offset +30)
End of status report

Лог проверки качества

AUDIOCHECKER v2.0 beta (build 457) - by Dester - [email protected]~~~~~~~~~~~~~~~~~~~~~~~~~~~~~~~~~~-=== DO NOT EDIT THIS FILE! ===-
Path: ...\only my railgun [FLAC]
1 -=- 01 only my railgun.flac -=- CDDA (100%)2 -=- 02 late in autumn.flac -=- CDDA (100%)3 -=- 03 only my railgun -instrumental-.flac -=- CDDA (100%)4 -=- 04 late in autumn -instrumental-.flac -=- CDDA (99%)
Summary 99.75% CDDA
193110564

Скриншоты спектра частот




Other forum [Profile] [PM]
Display posts from previous:    
Reply to topic

The time now is: Today 08:19

All times are GMT + 3 Hours



You cannot post new topics in this forum
You cannot reply to topics in this forum
You cannot edit your posts in this forum
You cannot delete your posts in this forum
You cannot vote in polls in this forum
You cannot attach files in this forum
You cannot download files in this forum