Today is a free download without charge Download

Rammstein - Рок над Волгой 2013 (2013-06-08) [2013, Industrial, HDCam]

Reply to topic
 
Author
Message

Omen ®

Longevity: 8 years 4 months

Posts: 181087

Торрент-статистика

Post 16-Jun-2013 16:58

[Quote]

Rammstein - Рок над Волгой 2013 (2013-06-08)
Жанр: Industrial
Продолжительность: 01:30:57
Год выпуска: 2013
Треклист:
1. Ich tu dir weh
2. Wollt Ihr Das Bett In Flammen Sehen
3. Keine lust
4. Sehnsucht
5. Asche Zu Asche
6. Feuer Frei!
7. Mein teil
8. Ohne dich
9. Wiener Blut
10. Du Riechst So Gut
11. Benzin
12. Links 2 3 4
13. Du Hast
14. Rammstein
15. Buck Dich
16. Ich Will
17. Mein Herz Brennt
18. Sonne
19. Pussy
Доп. информация: VIP Трибуна
Качество: HDCam
Контейнер: TS
Видео кодек: H.264
Аудио кодек: AC3
Видео: MPEG4 Video (H264), 1920x1080, 25.2 Mbps, 50fps
Аудио: Dolby AC3, 256kbps, 48000Hz, stereo

Отчёт MediaInfo / BDInfo

GeneralID : 1 (0x1)Complete name : D:\Rammstein - Live At Rock Over Volga, Samara (2013-06-08).tsFormat : MPEG-TSFile size : 16.5 GiBDuration : 1h 30mnOverall bit rate mode : VariableOverall bit rate : 26.0 MbpsMaximum Overall bit rate : 35.5 Mbps
VideoID : 4113 (0x1011)Menu ID : 1 (0x1)Format : AVCFormat/Info : Advanced Video CodecFormat profile : [email protected] settings, CABAC : YesFormat settings, ReFrames : 2 framesFormat settings, GOP : M=1, N=12Codec ID : 27Duration : 1h 30mnBit rate mode : VariableBit rate : 24.4 MbpsMaximum bit rate : 26.0 MbpsWidth : 1 920 pixelsHeight : 1 080 pixelsDisplay aspect ratio : 16:9Frame rate : 50.000 fpsColor space : YUVChroma subsampling : 4:2:0Bit depth : 8 bitsScan type : ProgressiveBits/(Pixel*Frame) : 0.236Stream size : 15.5 GiB (94%)
AudioID : 4352 (0x1100)Menu ID : 1 (0x1)Format : AC-3Format/Info : Audio Coding 3Mode extension : CM (complete main)Format settings, Endianness : BigCodec ID : 129Duration : 1h 30mnBit rate mode : ConstantBit rate : 256 KbpsChannel(s) : 2 channelsChannel positions : Front: L RSampling rate : 48.0 KHzBit depth : 16 bitsCompression mode : LossyStream size : 167 MiB (1%)
TextID : 4608 (0x1200)Menu ID : 1 (0x1)Format : PGSCodec ID : 144Duration : 1h 30mn
Other forum [Profile] [PM]
Display posts from previous:    
Reply to topic

The time now is: Today 03:06

All times are GMT + 3 Hours



You cannot post new topics in this forum
You cannot reply to topics in this forum
You cannot edit your posts in this forum
You cannot delete your posts in this forum
You cannot vote in polls in this forum
You cannot attach files in this forum
You cannot download files in this forum