Today is a free download without charge Download

Cheap Trick - Live at Austin City Limits [2010, Rock, HDTVRip 720p]

Reply to topic
 
Author
Message

Omen ®

Longevity: 8 years 3 months

Posts: 181087

Торрент-статистика

Post 16-Jun-2013 16:58

[Quote]

Cheap Trick - Live at Austin City Limits-
Жанр: Rock
Продолжительность: 54:37
Год выпуска: 2010-Описание: Концерт Cheap Trick в студии музыкальной телепрограммы Austin City Limits 18 марта 2010 г., трансляция телеканала PBS.-Треклист:
01. Way of the World
02. When the Lights are Out
03. I Want You to Want Me
04. Sleep Forever
05. Heaven Tonight
06. Miracle
07. Miss Tomorrow
08. Sick Man of Europe
09. Surrender
10. Voices
11. Dream Police
12. Gonna Raise Hell-Состав группы:
Robin Zander – lead vocals, guitar
Tom Petersson – bass guitar, vocals
Rick Nielsen – lead guitar, vocals
Daxx Nielsen – drums, vocals
Magic Cristian – keyboards, vocals
Roger Joseph Manning, Jr. – keyboards, vocals- -Дополнительная информация: Собственный рип исходника, вырезана реклама, добавлены главы, субтитры.-Качество: HDTVRip 720p
Контейнер: MKV
Видео кодек: h.264
Аудио кодек: AC3
Видео: 1276x716, 16:9, 6233 Kbps, 29.970 fps
Аудио: 192 Kbps, 48.0 KHz, 2 ch

MediaInfo

Код:
General
Unique ID                                : 196027588186790195345248048695151234068 (0x93798A4AA529C3F1B46D3EB6E9210C14)
Complete name                            : E:\Cheap Trick Austin City Limits 720p HDTVRip.mkv
Format                                   : Matroska
Format version                           : Version 4 / Version 2
File size                                : 2.50 GiB
Duration                                 : 54mn 37s
Overall bit rate                         : 6 555 Kbps
Encoded date                             : UTC 2013-05-03 08:49:24
Writing application                      : mkvmerge v6.1.0 ('Old Devil') built on Mar  2 2013 14:32:37
Writing library                          : libebml v1.3.0 + libmatroska v1.4.0
Video
ID                                       : 1
Format                                   : AVC
Format/Info                              : Advanced Video Codec
Format profile                           : [email protected]
Format settings, CABAC                   : Yes
Format settings, ReFrames                : 9 frames
Codec ID                                 : V_MPEG4/ISO/AVC
Duration                                 : 54mn 37s
Bit rate                                 : 6 233 Kbps
Width                                    : 1 276 pixels
Height                                   : 716 pixels
Display aspect ratio                     : 16:9
Frame rate mode                          : Constant
Frame rate                               : 29.970 fps
Color space                              : YUV
Chroma subsampling                       : 4:2:0
Bit depth                                : 8 bits
Scan type                                : Progressive
Bits/(Pixel*Frame)                       : 0.228
Stream size                              : 2.38 GiB (95%)
Writing library                          : x264 core 130 r2273 b3065e6
Encoding settings                        : cabac=1 / ref=9 / deblock=1:-3:-3 / analyse=0x3:0x133 / me=umh / subme=9 / psy=1 / psy_rd=1.00:0.00 / mixed_ref=1 / me_range=24 / chroma_me=1 / trellis=2 / 8x8dct=1 / cqm=0 / deadzone=21,11 / fast_pskip=0 / chroma_qp_offset=-2 / threads=12 / lookahead_threads=1 / sliced_threads=0 / nr=0 / decimate=1 / interlaced=0 / bluray_compat=0 / constrained_intra=0 / bframes=6 / b_pyramid=2 / b_adapt=2 / b_bias=0 / direct=3 / weightb=1 / open_gop=0 / weightp=2 / keyint=300 / keyint_min=29 / scenecut=40 / intra_refresh=0 / rc_lookahead=60 / rc=crf / mbtree=0 / crf=19.0 / qcomp=0.60 / qpmin=0 / qpmax=69 / qpstep=4 / vbv_maxrate=30000 / vbv_bufsize=40000 / crf_max=0.0 / nal_hrd=none / ip_ratio=1.40 / pb_ratio=1.30 / aq=1:1.00
Language                                 : English
Default                                  : Yes
Forced                                   : No
Audio
ID                                       : 2
Format                                   : AC-3
Format/Info                              : Audio Coding 3
Mode extension                           : CM (complete main)
Format settings, Endianness              : Big
Codec ID                                 : A_AC3
Duration                                 : 54mn 37s
Bit rate mode                            : Constant
Bit rate                                 : 192 Kbps
Channel(s)                               : 2 channels
Channel positions                        : Front: L R
Sampling rate                            : 48.0 KHz
Bit depth                                : 16 bits
Compression mode                         : Lossy
Delay relative to video                  : 32ms
Stream size                              : 75.0 MiB (3%)
Default                                  : Yes
Forced                                   : No
Text
ID                                       : 3
Format                                   : UTF-8
Codec ID                                 : S_TEXT/UTF8
Codec ID/Info                            : UTF-8 Plain Text
Default                                  : Yes
Forced                                   : No
Menu
00:00:00.000                             : en:Intro
00:00:35.056                             : en:Way of the World
00:04:33.628                             : en:When the Lights Out
00:08:15.850                             : en:I Want You to Want Me
00:12:14.322                             : en:Sleep Forever
00:13:45.546                             : en:Heaven Tonight
00:20:23.310                             : en:Miracle
00:24:15.375                             : en:Miss Tomorrow
00:28:15.982                             : en:Sick Man of Europe
00:30:32.719                             : en:Surrender
00:34:39.499                             : en:Voices
00:39:35.461                             : en:Dream Police
00:43:44.643                             : en:Gonna Raise Hell
00:52:53.692                             : en:Band Interview / Credits

Скриншоты

Other forum [Profile] [PM]
Display posts from previous:    
Reply to topic

The time now is: Today 00:03

All times are GMT + 3 Hours



You cannot post new topics in this forum
You cannot reply to topics in this forum
You cannot edit your posts in this forum
You cannot delete your posts in this forum
You cannot vote in polls in this forum
You cannot attach files in this forum
You cannot download files in this forum