Today is a free download without charge Download

1 [1, 1, BD Remux]

Reply to topic
 
Author
Message

Omen ®

Longevity: 8 years 3 months

Posts: 181087

Торрент-статистика

Post 16-Jun-2013 16:58

[Quote]

Linkin Park, Jay-Z, Paul McCartney - Los Angeles, CA, USA, The 48th Annual Grammy Awards (08.02.2006)
Жанр: Alternative Rock
Продолжительность: 3m:56s
Год выпуска: 2006
Описание:
8 February 2006
The 48th Annual Grammy Awards
Los Angeles, California
Staples Center

Треклист:
Numb/Encore+Yesterday
Качество: HDTV 1080i
Контейнер: TS
Видео кодек: MPEG2
Видео: 1920x1080 | 14.0 Mbps | 29.970 fps
Аудио: AC-3 | 384kbps | 6ch | 48.0 KHz

Отчёт MediaInfo / BDInfo

GeneralID : 1 (0x1)Complete name : Numb_Encore_Yesterday.tsFormat : MPEG-TSFile size : 428 MiBDuration : 3mn 56sOverall bit rate mode : VariableOverall bit rate : 15.2 Mbps
VideoID : 17 (0x11)Menu ID : 1 (0x1)Format : MPEG VideoFormat version : Version 2Format profile : [email protected] settings, BVOP : YesFormat settings, Matrix : DefaultFormat settings, GOP : M=3, N=15Codec ID : 2Duration : 3mn 56sBit rate mode : VariableBit rate : 14.0 MbpsMaximum bit rate : 25.0 MbpsWidth : 1 920 pixelsHeight : 1 080 pixelsDisplay aspect ratio : 16:9Frame rate : 29.970 fpsColor space : YUVChroma subsampling : 4:2:0Bit depth : 8 bitsScan type : InterlacedScan order : Top Field FirstCompression mode : LossyBits/(Pixel*Frame) : 0.226Time code of first frame : 01:38:20:10Time code source : Group of pictures headerStream size : 396 MiB (92%)
AudioID : 20 (0x14)Menu ID : 1 (0x1)Format : AC-3Format/Info : Audio Coding 3Mode extension : CM (complete main)Format settings, Endianness : BigCodec ID : 129Duration : 3mn 56sBit rate mode : ConstantBit rate : 384 KbpsChannel(s) : 6 channelsChannel positions : Front: L C R, Side: L R, LFESampling rate : 48.0 KHzBit depth : 16 bitsCompression mode : LossyDelay relative to video : -530msStream size : 10.8 MiB (3%)
Text #1ID : 17 (0x11)-CC1Menu ID : 1 (0x1)Format : EIA-608Muxing mode : A/53 / DTVCC TransportMuxing mode, more info : Muxed in Video #1Duration : 3mn 56sBit rate mode : ConstantStream size : 0.00 Byte (0%)
Text #2ID : 17 (0x11)-1Menu ID : 1 (0x1)Format : EIA-708Muxing mode : A/53 / DTVCC TransportMuxing mode, more info : Muxed in Video #1Duration : 3mn 56sBit rate mode : ConstantStream size : 0.00 Byte (0%)
Text #3ID : 17 (0x11)-2Menu ID : 1 (0x1)Format : EIA-708Muxing mode : A/53 / DTVCC TransportMuxing mode, more info : Muxed in Video #1Duration : 3mn 56sBit rate mode : ConstantStream size : 0.00 Byte (0%)

Скриншоты

Other forum [Profile] [PM]
Display posts from previous:    
Reply to topic

The time now is: Today 03:48

All times are GMT + 3 Hours



You cannot post new topics in this forum
You cannot reply to topics in this forum
You cannot edit your posts in this forum
You cannot delete your posts in this forum
You cannot vote in polls in this forum
You cannot attach files in this forum
You cannot download files in this forum