Today is a free download without charge Download

Шербургские зонтики /The Umbrellas of Cherbourg / Les parapluies de Cherbourg (Жак Деми) [1964 г., мюзикл, драма, мелодрама, BDRip720p]

Reply to topic
 
Author
Message

Delia ®

Gender:

Longevity: 9 years 6 months

Posts: 1821

Торрент-статистика

Post 20-Aug-2011 10:50

[Quote]

Шербургские зонтикиThe Umbrellas of Cherbourg / Les parapluies de Cherbourg Год выпуска: 1964
Страна: Франция, Германия (ФРГ)
Жанр: мюзикл, драма, мелодрама
Продолжительность: 01:31:24
Перевод: Профессиональный (многоголосый, закадровый)
Режиссер: Жак Деми
Продюссер: Маг Бодар
Сценарий: Жак Деми
Бюджет: $18 425
Премьера в мире: 19 февраля 1964
В ролях: Катрин Денёв, Нино Кастельнуово, Анн Вернон, Марк Мишель, Эллен Фарнер, Мирей Перре, Жан Шампьон, Пьер Каден, Жан-Пьер Дора, Бернар Фраде
Описание: Юная Женевьева работает в семейном галантерейном магазинчике — продает зонтики. Она влюблена в автомеханика Ги, и тот отвечает ей взаимностью. Но вскоре Ги забирают в армию и отправляют в Алжир. Расставаясь, влюбленные обещают ждать друг друга. Затем Женевьева узнает, что она беременна, а вестей от любимого все нет, и девушка соглашается на брак с состоятельным и солидным мужчиной...
Качество: BDRip720p
Формат: MKV
Видео кодек: H.264
Аудио кодек: AC3
Видео: English, 4835 Кбит/сек, 1280*688 (1,860), в 23,976 кадр/сек, AVC ([email protected])
Аудио: Russian, 1510 Кбит/сек, 48,0 КГц, 24 бит, 2 канала(ов), DTS
Аудио:French, 320 Кбит/сек, 48,0 КГц, 16 бит, 2 канала(ов), AC-3
Дополнительно отдельными файлами :
Russian , 48 kHz, AC3, 2/0 (L,R) ch, ~192.00 kbps avg | Двухголосый закадровый, Дивайс (Светла, Tivionica)
Russian , 48 kHz, AC3, 2/0 (L,R) ch, ~192.00 kbps avg |Oдноголосый закадровый Н.Александрович (Союзмультфильм)
Субтитры:Russian - VobSub(СОЮЗ Видео)

MI:

Общее
Уникальный идентификатор : 175585488681348459068103440710650622202 (0x841888F8B7AC86A1A1EE99A5E114F0FA)
Полное имя : F:\торрент\Sherburgskie.zontiki.1964.BDRip720p\The Umbrellas of Cherbourg(1964)BDRip720p.mkv
Формат : Matroska
Размер файла : 4,26 Гбайт
Продолжительность : 1 ч. 31 м.
Общий поток : 6669 Кбит/сек
Дата кодирования : UTC 2011-08-20 06:29:25
Программа кодирования : mkvmerge v4.9.1 ('Ich will') built on Jul 11 2011 23:53:15
Библиотека кодирования : libebml v1.2.1 + libmatroska v1.1.1
Видео
Идентификатор : 1
Формат : AVC
Формат/Информация : Advanced Video Codec
Профиль формата : [email protected]
Параметр CABAC формата : Да
Параметр ReFrames формата : 9 кадры
Идентификатор кодека : V_MPEG4/ISO/AVC
Продолжительность : 1 ч. 31 м.
Битрейт : 4835 Кбит/сек
Ширина : 1280 пикс.
Высота : 688 пикс.
Соотношение сторон : 1,860
Частота кадров : 23,976 кадр/сек
Цветовое пространство : YUV
Подвыборка цветности : 4:2:0
Битовая глубина : 8 бит
Тип развёртки : Прогрессивная
Бит/(Пиксели*Кадры) : 0.229
Размер потока : 3,00 Гбайт (71%)
Библиотека кодирования : x264 core 116 r2057 0ba8a9c
Настройки программы : cabac=1 / ref=9 / deblock=1:-3:-3 / analyse=0x3:0x133 / me=umh / subme=9 / psy=1 / psy_rd=1.00:0.20 / mixed_ref=1 / me_range=32 / chroma_me=1 / trellis=2 / 8x8dct=1 / cqm=0 / deadzone=21,11 / fast_pskip=0 / chroma_qp_offset=-3 / threads=6 / sliced_threads=0 / nr=0 / decimate=1 / interlaced=0 / bluray_compat=0 / constrained_intra=0 / bframes=10 / b_pyramid=2 / b_adapt=2 / b_bias=0 / direct=3 / weightb=1 / open_gop=0 / weightp=2 / keyint=250 / keyint_min=23 / scenecut=40 / intra_refresh=0 / rc_lookahead=60 / rc=2pass / mbtree=1 / bitrate=4835 / ratetol=1.0 / qcomp=0.60 / qpmin=10 / qpmax=51 / qpstep=4 / cplxblur=20.0 / qblur=0.5 / ip_ratio=1.40 / aq=1:1.00
Язык : English
Аудио #1
Идентификатор : 2
Формат : DTS
Формат/Информация : Digital Theater Systems
Идентификатор кодека : A_DTS
Продолжительность : 1 ч. 31 м.
Вид битрейта : Постоянный
Битрейт : 1510 Кбит/сек
Канал(ы) : 2 канала(ов)
Расположение каналов : Front: L R
Частота : 48,0 КГц
Битовая глубина : 24 бит
Метод сжатия : С потерями
Размер потока : 987 Мбайт (23%)
Язык : Russian
Аудио #2
Идентификатор : 3
Формат : AC-3
Формат/Информация : Audio Coding 3
Расширение режима : CM (complete main)
Идентификатор кодека : A_AC3
Продолжительность : 1 ч. 31 м.
Вид битрейта : Постоянный
Битрейт : 320 Кбит/сек
Канал(ы) : 2 канала(ов)
Расположение каналов : Front: L R
Частота : 48,0 КГц
Битовая глубина : 16 бит
Метод сжатия : С потерями
Размер потока : 209 Мбайт (5%)
Язык : French
Текст
Идентификатор : 4
Формат : VobSub
Режим смешивания : zlib
Идентификатор кодека : S_VOBSUB
Идентификатор кодека/Информация : The same subtitle format used on DVDs
Язык : Russian
Меню
00:00:00.000 : en:00:00:00.000
00:02:37.448 : en:00:02:37.448
00:09:38.953 : en:00:09:38.953
00:14:25.364 : en:00:14:25.364
00:19:48.145 : en:00:19:48.145
00:27:35.487 : en:00:27:35.487
00:37:12.647 : en:00:37:12.647
00:41:42.708 : en:00:41:42.708
00:46:48.639 : en:00:46:48.639
00:54:26.513 : en:00:54:26.513
00:57:03.837 : en:00:57:03.837
01:03:36.896 : en:01:03:36.896
01:06:41.414 : en:01:06:41.414
01:12:03.319 : en:01:12:03.319
01:21:06.862 : en:01:21:06.862
01:24:18.052 : en:01:24:18.052

Скриншоты

                 

_________________
Человек – это канат, натянутый между животным и сверхчеловеком, – канат над пропастью.
В человеке ценно то, что он мост, а не цель. Фридрих Ницше


Last edited by Delia on 2011-08-20 12:05; edited 2 times in total
Other forum [Profile] [PM]
Display posts from previous:    
Reply to topic

The time now is: Today 09:13

All times are GMT + 3 Hours



You cannot post new topics in this forum
You cannot reply to topics in this forum
You cannot edit your posts in this forum
You cannot delete your posts in this forum
You cannot vote in polls in this forum
You cannot attach files in this forum
You cannot download files in this forum