Today is a free download without charge Download

Легенды о Круге (мини-сериал) (Тимур Кабулов) [2012, Россия, драма, биография, Blu-ray Disc 1080i] Original Rus

Reply to topic
 
Author
Message

Omen ®

Longevity: 8 years 10 months

Posts: 181086

Торрент-статистика

Post 16-Jun-2013 08:52

[Quote]

Легенды о Круге(мини-сериал) Год выпуска: 2012
Страна: Россия
Жанр: Драма, биография
Продолжительность: 180 минут /3:00:40
Перевод: Оригинал-Студия: Централ Партнершип
Режиссер: Тимур Кабулов
Сценарий: Илья Шиловский
В ролях: Юрий Кузнецов-Таёжный, Александр Домогаров, Иван Добронравов, Сергей Газаров, Владимир Зайцев, Илья Древнов, Ольга Смирнова, Дарья Калмыкова, Диана Корсс, Александр Кузнецов-Сюжет фильма: Фильм рассказывает о судьбе барда Михаила Круга, такого близкого и знакомого миллионам и в то же время до конца неузнанного русского певца и поэта.Спасибо: avproh Техническая информация:
Качество: Blu-ray BD-50 Dual-Layer Disc 1080i
Контейнер: BDMV
Видео: MPEG-4 AVC Video 29935 kbps 1080i / 25 fps / 16:9 / High Profile 4.1
Аудио: Russian / DTS-HD MA 5.1 (48 kHz / 2294 kbps / 16-bit)
Subtitles/Captions: Нет
Supplements: TBA

BDInfo:

DISC INFO:
Disc Title: Legenda o KrugeDisc Size: 46 077 484 225 bytesProtection: AACSBD-Java: NoExtras: 50Hz ContentBDInfo: 0.5.8
PLAYLIST REPORT:
Name: 00004.MPLSLength: 3:00:40.240 (h:m:s.ms)Size: 45 995 452 416 bytesTotal Bitrate: 33,94 Mbps
VIDEO:
Codec Bitrate Description----- ------- -----------MPEG-4 AVC Video 29935 kbps 1080i / 25 fps / 16:9 / High Profile 4.1
AUDIO:
Codec Language Bitrate Description----- -------- ------- -----------DTS-HD Master Audio Russian 2294 kbps 5.1 / 48 kHz / 2294 kbps / 16-bit (DTS Core: 5.1 / 48 kHz / 1509 kbps / 16-bit)
FILES:
Name Time In Length Size Total Bitrate---- ------- ------ ---- -------------00004.M2TS 0:00:00.000 0:45:09.960 11 500 898 304 33 95100005.M2TS 0:45:09.960 0:45:09.840 11 490 938 880 33 92400006.M2TS 1:30:19.800 0:45:10.160 11 491 043 328 33 92000007.M2TS 2:15:29.960 0:45:10.080 11 512 559 616 33 98400003.M2TS 3:00:40.040 0:00:00.200 12 288 492

Скриншоты:

Фильм:

Полиграфия:

Other forum [Profile] [PM]
Display posts from previous:    
Reply to topic

The time now is: Today 22:21

All times are GMT + 3 Hours



You cannot post new topics in this forum
You cannot reply to topics in this forum
You cannot edit your posts in this forum
You cannot delete your posts in this forum
You cannot vote in polls in this forum
You cannot attach files in this forum
You cannot download files in this forum