Today is a free download without charge Download

Чиж & Co - Рок над Волгой [2013, Рок, HDCamRip]

Reply to topic
 
Author
Message

Omen ®

Longevity: 8 years 4 months

Posts: 181087

Торрент-статистика

Post 16-Jun-2013 04:45

[Quote]

Чиж & Co - Рок над Волгой
Жанр: Рок
Продолжительность: 50:13
Год выпуска: 2013
Описание: Выступление группы Чиж & Co на фестивале Рок над Волгой в 2013 году.
Если кому то лень качать почти 7 гигов, то для таких людей залил на ютуб http://www.youtube.com/watch?v=v-CkdGUp3uU
Список песен:
00:00 - Ветер вырывает из рук (Последние деньги)
04:28 - Любитель жидкости
07:30 - О любви
12:50 - Фантом
17:45 - Еду, еду
21:48 - Батька-атаман
26:30 - Hoochie Coochie Man
32:33 - Полонез
37:27 - Такие дела
42:40 - Мне не хватает свободы
47:20 - Вечная молодость
Качество: HDCamRip
Контейнер: AVI
Видео кодек: XviD
Аудио кодек: MP3
Видео: MPEG-4 Visual, 1920*1080, 20.0 Mbps, 50.000 fps
Аудио: MP3, 320 Kbps, 48.0 KHz, 2 channels

Отчёт MediaInfo / BDInfo

GeneralComplete name : G:\Клипы\Чиж и ко (Рок над Волгой 2013).aviFormat : AVIFormat/Info : Audio Video InterleaveFormat profile : OpenDMLFile size : 7.13 GiBDuration : 50mn 12sOverall bit rate : 20.3 MbpsWriting application : Lavf54.29.105
VideoID : 0Format : MPEG-4 VisualFormat profile : [email protected] settings, BVOP : NoFormat settings, QPel : NoFormat settings, GMC : No warppointsFormat settings, Matrix : Default (H.263)Codec ID : XVIDCodec ID/Hint : XviDDuration : 50mn 12sBit rate : 20.0 MbpsWidth : 1 920 pixelsHeight : 1 080 pixelsDisplay aspect ratio : 16:9Frame rate : 50.000 fpsColor space : YUVChroma subsampling : 4:2:0Bit depth : 8 bitsScan type : ProgressiveCompression mode : LossyBits/(Pixel*Frame) : 0.193Stream size : 7.01 GiB (98%)Writing library : Lavc54.63.100
AudioID : 1Format : MPEG AudioFormat version : Version 1Format profile : Layer 3Mode : Joint stereoMode extension : MS StereoCodec ID : 55Codec ID/Hint : MP3Duration : 50mn 12sBit rate mode : ConstantBit rate : 320 KbpsChannel(s) : 2 channelsSampling rate : 48.0 KHzCompression mode : LossyStream size : 115 MiB (2%)Alignment : Aligned on interleavesInterleave, duration : 24 ms (1.20 video frame)Interleave, preload duration : 48 msWriting library : LAME3.99.5

Скриншоты




Other forum [Profile] [PM]
Display posts from previous:    
Reply to topic

The time now is: Today 13:01

All times are GMT + 3 Hours



You cannot post new topics in this forum
You cannot reply to topics in this forum
You cannot edit your posts in this forum
You cannot delete your posts in this forum
You cannot vote in polls in this forum
You cannot attach files in this forum
You cannot download files in this forum