Today is a free download without charge Download

Форсаж 5 / Fast Five (Джастин Лин) [2011 г., боевик, триллер, драма, криминал, BDRip (720p)]

Reply to topic
 
Author
Message

nsa1977 ®

Gender:

Longevity: 9 years 4 months

Posts: 1470

Location: Пенза

Торрент-статистика

Post 20-Aug-2011 09:37

[Quote]

Форсаж 5 / Fast Five
Год выпуска: 2011
Страна: США
Жанр: боевик, триллер, драма, криминал
Продолжительность: 02:10:21
Перевод: Дублированный
Режиссер: Джастин Лин
Продюссер: Вин Дизель, Майкл Фоттрел, Нил Х. Мориц
Сценарий: Стивен Ф. Уиндон
Бюджет: $125 000 000
Премьера в мире: 15 апреля 2011--В ролях: Вин Дизель, Пол Уокер, Джордана Брюстер, Тайриз Гибсон, Лудакрис, Эльза Патаки, Галь Гадот, Тего Калдерон, Дон Омар, Мэтт Шульце-- --Описание: Бывший полицейский Брайан О`Коннер вместе с бывалым лихачом Домиником Торетто совсем немного увлеклись жизнью вне закона. После того, как Брайан и Миа Торетто освободили Доминика, они не рискуют долго задерживаться на одном месте, так как являются желанной целью порядком недовольных копов.--Качество: BDRip (720p)
Формат: MKV
Видео кодек: H.26x
Аудио кодек: DTS
Видео: 1280х544, 23,976 fps, 4032 kbps, 0.242 bit/pixel
Аудио: 48 kHz, DTS 5.1, 24-bit, 755 kbps (Русский)--

MediaINFO


Полное имя : D:\Роздачи\Fast Five.2011.BDRip.720p-PT.mkv
Формат : Matroska
Размер файла : 4,37 Гбайт
Продолжительность : 2 ч. 10 м.
Общий поток : 4802 Кбит/сек
Дата кодирования : UTC 2011-08-19 18:48:14
Программа кодирования : mkvmerge v4.8.0 ('I Got The...') сборка от May 24 2011 03:12:58
Библиотека кодирования : libebml v1.2.0 + libmatroska v1.1.0
Видео
Идентификатор : 1
Формат : AVC
Формат/Информация : Advanced Video Codec
Профиль формата : [email protected]
Параметр CABAC формата : Да
Параметр ReFrames формата : 4 кадра
Идентификатор кодека : V_MPEG4/ISO/AVC
Продолжительность : 2 ч. 10 м.
Битрейт : 4032 Кбит/сек
Ширина : 1280 пикс.
Высота : 544 пикс.
Соотношение сторон : 2,35:1
Частота кадров : 23,976 кадр/сек
Цветовое пространство : YUV
Подвыборка цветности : 4:2:0
Битовая глубина : 8 бит
Тип развёртки : Прогрессивная
Бит/(Пиксели*Кадры) : 0.242
Размер потока : 3,60 Гбайт (82%)
Библиотека кодирования : x264 core 115 r1995 c1e60b9
Настройки программы : cabac=1 / ref=3 / deblock=1:-1:-1 / analyse=0x3:0x113 / me=umh / subme=9 / psy=1 / psy_rd=1.00:0.15 / mixed_ref=1 / me_range=32 / chroma_me=1 / trellis=1 / 8x8dct=1 / cqm=0 / deadzone=21,11 / fast_pskip=1 / chroma_qp_offset=-3 / threads=3 / sliced_threads=0 / nr=0 / decimate=1 / interlaced=0 / bluray_compat=0 / constrained_intra=0 / bframes=3 / b_pyramid=2 / b_adapt=1 / b_bias=0 / direct=1 / weightb=1 / open_gop=0 / weightp=2 / keyint=250 / keyint_min=23 / scenecut=40 / intra_refresh=0 / rc=2pass / mbtree=0 / bitrate=4032 / ratetol=1.0 / qcomp=0.60 / qpmin=10 / qpmax=51 / qpstep=4 / cplxblur=20.0 / qblur=0.5 / ip_ratio=1.40 / pb_ratio=1.30 / aq=1:1.00
Аудио
Идентификатор : 2
Формат : DTS
Формат/Информация : Digital Theater Systems
Идентификатор кодека : A_DTS
Продолжительность : 2 ч. 10 м.
Вид битрейта : Постоянный
Битрейт : 755 Кбит/сек
Каналы : 6 каналов
Расположение каналов : Front: L C R, Side: L R, LFE
Частота : 48,0 КГц
Битовая глубина : 24 бит
Метод сжатия : С потерями
Размер потока : 703 Мбайт (16%)
Заголовок : Дубляж
Язык : Russian
--        

_________________
Other forum [Profile] [PM]
Similar theme
Forum Topic Author Torrent Replies Last Post
./templates/default/images/folder_dl.gif Новинки (HD|DVD|BD|WEB|TV|SAT|PDTV|-Rip) Форсаж: Хоббс и Шоу / Fast & Furious Presents: Hobbs & Shaw (Дэвид Литч) [2019 г., боевик, приключения, WEB-DLRip]DUB| Локализованная версия | Line kilmister777
1 | 0

0 | 338

0

2019-09-27 08:24
kilmister777 Latest
./templates/default/images/folder_dl.gif Новинки (HD|DVD|BD|WEB|TV|SAT|PDTV|-Rip) Маленькие чудовища / Little Monsters (Абе Форсайт) [2019 г., ужасы, комедия, WEB-DLRip]DUB | iTunes kilmister777
1 | 0

0 | 125

0

Yesterday 08:41
kilmister777 Latest
Display posts from previous:    
Reply to topic

The time now is: Today 08:47

All times are GMT + 3 Hours



You cannot post new topics in this forum
You cannot reply to topics in this forum
You cannot edit your posts in this forum
You cannot delete your posts in this forum
You cannot vote in polls in this forum
You cannot attach files in this forum
You cannot download files in this forum