Today is a free download without charge Download

Принц и нищий / Crossed swords / The Prince and the Pauper (1977) DVDRip

Reply to topic
 
Author
Message

Nugeiro ®

Gender:

Longevity: 10 years

Posts: 1981

Location: Украина, Шостка

Торрент-статистика

Post 20-Aug-2011 08:19

[Quote]

Принц и нищий / Crossed Swords / The Prince and the Pauper--
Название: Принц и нищий
Оригинальное название: Crossed Swords
Год выхода: 1977
Выпущено: США, Великобритания, International Film Production, Prince and the Pauper Film Export A.G.
Жанр: Приключения, семейный, история
Продолжительность: 02:01:31
Перевод:
  • Дублированный (Советский дубляж)
    В Советском дубляже вырезаны места. В них закадровый перевод (в общей сложности около 30 минут)
  • Профессиональный (многоголосый, закадровый)
-Режисер: Ричард Флайшер-В ролях: Марк Лестер, Оливер Рид, Рэкел Уэлч, Эрнест Боргнайн, Джордж К. Скотт, Рекс Харрисон, Дэвид Хеммингс, Гарри Эндрюс, Джулиан Орхард, Мюррэй Мелвин, Лалла Уорд, Фелисити Дин, Сибил Дэннинг, Грэм Старк, Престон Локвуд, Артур Хьюлетт, Томми Райт, Гарри Фоулер, Richard Hurndall, Dan Meaden, Тайрон Кэссиди, Дон Хендерсон, Сидни Бромли, Рут Мэдок, Дадли Саттон, Рой Эванс, Уильям Лоуфорд, Питер О’Фэррелл, Энтони Шарп, Питер Селлиер, Эндрю Лодж, Игорь Де Савитч, Дервис Уорд, Майкл Риппер, Жак Ле Карпентье, Чарлтон Хестон-Описание: Нищий становится повелителем Англии, а монарх вкушает горечь и унижение, уготованные беднякам в его королевстве. Явившись в неведомый ему до того мир нищеты и лишений, маленький принц тотчас же заступается за невинно обиженных, а нищий Том Кенти в королевском дворце с той же зоркостью и непосредственностью детской души рушит хитросплетения несправедливых законов...--Релиз:
Формат: AVI
Качество: DVDRip
Видео: XviD, 1484 Кбит/с, 704x320, 23.976 fps
Аудио:
  • 48 kHz, MPEG Layer 3, 1 ch, ~96.00 kbps avg - Дублированный
  • 48 kHz, MPEG Layer 3, 1 ch, ~96.00 kbps avg - Многоголосый, закадровый
  • 48 kHz, MPEG Layer 3, 1 ch, ~96.00 kbps avg - Оригинальный (английский)

MediaInfo

Код:
General
Complete name                    : D:\Princ.i.nishhij.1977.(DVDRip.XviD.Rus.Eng.).avi
Format                           : AVI
Format/Info                      : Audio Video Interleave
File size                        : 1.52 GiB
Duration                         : 2h 1mn
Overall bit rate                 : 1 791 Kbps
Movie name                       : Принц и нищий / The Prince and the Pauper / Crossed Swords / (1977)
Video
ID                               : 0
Format                           : MPEG-4 Visual
Format profile                   : Advanced [email protected]
Format settings, BVOP            : 1
Format settings, QPel            : No
Format settings, GMC             : No warppoints
Format settings, Matrix          : Custom
Codec ID                         : XVID
Codec ID/Hint                    : XviD
Duration                         : 2h 1mn
Bit rate                         : 1 484 Kbps
Width                            : 704 pixels
Height                           : 320 pixels
Display aspect ratio             : 2.2:1
Frame rate                       : 23.976 fps
Color space                      : YUV
Chroma subsampling               : 4:2:0
Bit depth                        : 8 bits
Scan type                        : Progressive
Compression mode                 : Lossy
Bits/(Pixel*Frame)               : 0.275
Stream size                      : 1.26 GiB (83%)
Writing library                  : XviD 1.3.0.dev55
Audio #1
ID                               : 1
Format                           : MPEG Audio
Format version                   : Version 1
Format profile                   : Layer 3
Codec ID                         : 55
Codec ID/Hint                    : MP3
Duration                         : 2h 1mn
Bit rate mode                    : Constant
Bit rate                         : 96.0 Kbps
Channel(s)                       : 1 channel
Sampling rate                    : 48.0 KHz
Compression mode                 : Lossy
Stream size                      : 83.4 MiB (5%)
Alignment                        : Aligned on interleaves
Interleave, duration             : 42 ms (1.00 video frame)
Interleave, preload duration     : 504 ms
Audio #2
ID                               : 2
Format                           : MPEG Audio
Format version                   : Version 1
Format profile                   : Layer 3
Codec ID                         : 55
Codec ID/Hint                    : MP3
Duration                         : 2h 1mn
Bit rate mode                    : Constant
Bit rate                         : 96.0 Kbps
Channel(s)                       : 1 channel
Sampling rate                    : 48.0 KHz
Compression mode                 : Lossy
Stream size                      : 83.4 MiB (5%)
Alignment                        : Aligned on interleaves
Interleave, duration             : 42 ms (1.00 video frame)
Interleave, preload duration     : 504 ms
Audio #3
ID                               : 3
Format                           : MPEG Audio
Format version                   : Version 1
Format profile                   : Layer 3
Codec ID                         : 55
Codec ID/Hint                    : MP3
Duration                         : 2h 1mn
Bit rate mode                    : Constant
Bit rate                         : 96.0 Kbps
Channel(s)                       : 1 channel
Sampling rate                    : 48.0 KHz
Compression mode                 : Lossy
Stream size                      : 83.4 MiB (5%)
Alignment                        : Aligned on interleaves
Interleave, duration             : 42 ms (1.00 video frame)
Interleave, preload duration     : 504 ms
Скриншоты:      

_________________
Other forum [Profile] [PM]
Display posts from previous:    
Reply to topic

The time now is: Today 02:26

All times are GMT + 3 Hours



You cannot post new topics in this forum
You cannot reply to topics in this forum
You cannot edit your posts in this forum
You cannot delete your posts in this forum
You cannot vote in polls in this forum
You cannot attach files in this forum
You cannot download files in this forum