Today is a free download without charge Download

Врач / Серии: 1-12 из 12 (Станислав Титаренко) [2010 г., мелодрама, 2хDVD9]

Reply to topic
 
Author
Message

nsa1977 ®

Gender:

Longevity: 11 years

Posts: 1470

Location: Пенза

Торрент-статистика

Post 19-Aug-2011 20:50

[Quote]

Врач
Серии: 1-12 из 12

Год выпуска: 2010
Выпущено: Студия "Панорама" для ООО "Форвард-Фильм"
Жанр: мелодрама
Продолжительность: 04:26:34 + 04:26:23
Субтитры: отсутствуют
Режиссер: Станислав Титаренко
Язык: Русский--В ролях: Сергей Юшкевич, Константин Стрельников, Алексей Фокин, Марина Коняшкина, Полина Воробьева, Александра Сыдорук, Наталья Индейкина, Татьяна Колганова, Юрий Архангельский, Николай Буров-- --Описание: Главный врач районной больницы Головатов решается на рискованный эксперимент, в рамках которого на пациентах, больных различными патологиями печени, будет испытано новое уникальное лекарство. Это средство под названием "Эмтрал" было безвозмездно предоставлено известной фармацевтической компанией, кровно заинтересованной в результатах исследования. Вести всю работу с пациентами поручается опытному доктору Ивану Важову. С первых шагов Важов замечает множество странностей, сопровождающих апробацию нового препарата, но до времени предпочитает закрывать на это глаза, однако ему приходится в корне изменить свою точку зрения после того как в больнице при странных обстоятельствах начинают умирать пациенты, и параллельно выясняется, что Минздрав никогда не давал разрешения на исследование "Эмтрала"...--Качество: DVD9
Формат: DVD-Video
Видео кодек: MPEG2
Аудио кодек: AC3
Видео: MPEG2 Video 720x576 (16:9) 25.00fps ~3600kbps
Аудио : Русский (Dolby AC3, 2 ch), русский (Dolby AC3, 6 ch)--

DVD Info


Title: Vrach.2010.O.DVD_1
Size: 7.81 Gb ( 8 186 782 KBytes ) - DVD-9
Enabled regions: 1, 2, 3, 4, 5, 6, 7, 8
VTS_01 :
Play Length: 04:26:34
Video: PAL 16:9 (720x576) VBR, Auto Letterboxed
Audio:
English (Dolby AC3, 2 ch)
English (Dolby AC3, 6 ch)
Menu Video:
PAL 4:3 (720x576) VBR
Menu Audio:
Not specified (Dolby AC3, 2 ch)
Menu Subtitles:
Not specified
Menu Russian Language Unit :
Root Menu
-------------------------------------------------
Title: Vrach.2010.O.DVD_2
Size: 7.84 Gb ( 8 219 718 KBytes ) - DVD-9
Enabled regions: 1, 2, 3, 4, 5, 6, 7, 8
VTS_01 :
Play Length: 04:26:23
Video: PAL 16:9 (720x576) VBR, Auto Letterboxed
Audio:
English (Dolby AC3, 2 ch)
English (Dolby AC3, 6 ch)
Menu Video:
PAL 4:3 (720x576) VBR
Menu Audio:
Not specified (Dolby AC3, 2 ch)
Menu Subtitles:
Not specified
Menu Russian Language Unit :
Root Menu

MediaInfo


Общее
Полное имя : E:\Vrach.2010.O.2_DVD-9\Vrach.2010.O.DVD_1\VIDEO_TS\VTS_01_1.VOB
Формат : MPEG-PS
Размер файла : 1024 Мбайт
Продолжительность : 33 м.
Общий поток : 4233 Кбит/сек
Видео
Идентификатор : 224 (0xE0)
Формат : MPEG Video
Версия формата : Version 2
Профиль формата : [email protected]
Параметр BVOP формата : Да
Параметр матрицы формата : По умолчанию
Параметры GOP формата : M=3, N=12
Продолжительность : 33 м.
Вид битрейта : Переменный
Битрейт : 3605 Кбит/сек
Максимальный битрейт : 9200 Кбит/сек
Ширина : 720 пикс.
Высота : 576 пикс.
Соотношение сторон : 16:9
Частота кадров : 25,000 кадр/сек
Стандарт вещания : PAL
Цветовое пространство : YUV
Подвыборка цветности : 4:2:0
Битовая глубина : 8 бит
Тип развёртки : Прогрессивная
Метод сжатия : С потерями
Бит/(Пиксели*Кадры) : 0.348
Размер потока : 872 Мбайт (85%)
Аудио #1
Идентификатор : 189 (0xBD)-128 (0x80)
Формат : AC-3
Формат/Информация : Audio Coding 3
Расширение режима : CM (complete main)
Режим смешивания : DVD-Video
Продолжительность : 33 м.
Вид битрейта : Постоянный
Битрейт : 96,0 Кбит/сек
Каналы : 2 канала
Расположение каналов : Front: L R
Частота : 48,0 КГц
Битовая глубина : 16 бит
Метод сжатия : С потерями
Размер потока : 23,2 Мбайт (2%)
Аудио #2
Идентификатор : 189 (0xBD)-129 (0x81)
Формат : AC-3
Формат/Информация : Audio Coding 3
Расширение режима : CM (complete main)
Режим смешивания : DVD-Video
Продолжительность : 33 м.
Вид битрейта : Постоянный
Битрейт : 448 Кбит/сек
Каналы : 6 каналов
Расположение каналов : Front: L C R, Side: L R, LFE
Частота : 48,0 КГц
Битовая глубина : 16 бит
Метод сжатия : С потерями
Размер потока : 108 Мбайт (11%)
Меню

Скриншоты меню

     
--          

_________________
Other forum [Profile] [PM]
Display posts from previous:    
Reply to topic

The time now is: Today 10:16

All times are GMT + 3 Hours



You cannot post new topics in this forum
You cannot reply to topics in this forum
You cannot edit your posts in this forum
You cannot delete your posts in this forum
You cannot vote in polls in this forum
You cannot attach files in this forum
You cannot download files in this forum