Today is a free download without charge Download

Боевой кузнечик (Алексей Папшин) [1977 г., мультфильм, детский, кукольный, DVB]

Reply to topic
 
Author
Message

Omen ®

Longevity: 8 years 11 months

Posts: 181086

Торрент-статистика

Post 15-Jun-2013 20:33

[Quote]

Боевой кузнечик
Жанр: мультфильм, детский, кукольный
Год выпуска: 1977
Продолжительность: 00:10:11
Режиссёр: Алексей Папшин
Описание: По мотивам сказки Сергея Воронина "Тайна боевого кузнечика". О добром и смелом кузнечике, который готов в любую минуту встать на защиту слабых и беззащитных.
Трансляция спутникового канала: "Карусель"
Качество видео: DVB
Формат видео: MPEG-PS
Видео: MPEG2 Video, 720x576, 25 fps, 3700 kbps
Аудио: MPEG Audio, 2 сh, 48 kHz, 192 kbps

MediaInfo

General
Complete name : G:\Боевой кузнечик. (1977)_DVB by SLuMeP.mpg
Format : MPEG-PS
File size : 288 MiB
Duration : 10mn 11s
Overall bit rate mode : Variable
Overall bit rate : 3 949 Kbps
Writing library : (c) 1998-2010 Womble Multimedia, Inc. / MPEG Video Wizard DVD 5.0.0.114 (01/2010) / Apr 20 2010
Video
ID : 224 (0xE0)
Format : MPEG Video
Format version : Version 2
Format profile : [email protected]
Format settings, BVOP : Yes
Format settings, Matrix : Custom
Format settings, GOP : M=3, N=12
Duration : 10mn 11s
Bit rate mode : Variable
Bit rate : 3 679 Kbps
Maximum bit rate : 5 000 Kbps
Width : 720 pixels
Height : 576 pixels
Display aspect ratio : 4:3
Frame rate : 25.000 fps
Standard : PAL
Color space : YUV
Chroma subsampling : 4:2:0
Bit depth : 8 bits
Scan type : Interlaced
Scan order : Top Field First
Compression mode : Lossy
Bits/(Pixel*Frame) : 0.355
Time code of first frame : 00:00:00:00
Time code source : Group of pictures header
Stream size : 268 MiB (93%)
Writing library : (c) 1998-2010 Womble Multimedia, Inc. / MPEG Video Wizard DVD 5.0.0.114 (01/2010) / Apr 20 2010
Audio
ID : 192 (0xC0)
Format : MPEG Audio
Format version : Version 1
Format profile : Layer 2
Duration : 10mn 11s
Bit rate mode : Constant
Bit rate : 192 Kbps
Channel(s) : 2 channels
Sampling rate : 48.0 KHz
Compression mode : Lossy
Delay relative to video : -40ms
Stream size : 14.0 MiB (5%)

Скриншоты

Other forum [Profile] [PM]
Similar theme
Forum Topic Author Torrent Replies Last Post
./templates/default/images/folder_dl.gif Фильмы 2011-2020 Алита: Боевой ангел / Alita: Battle Angel (Роберт Родригес) [2019 г., фантастика, боевик, триллер, мелодрама, приключения, WEB-DLRip]MVO | CВ Студия kilmister777
1 | 0

0 | 816

0

2019-06-30 17:02
kilmister777 Latest
Display posts from previous:    
Reply to topic

The time now is: Today 18:38

All times are GMT + 3 Hours



You cannot post new topics in this forum
You cannot reply to topics in this forum
You cannot edit your posts in this forum
You cannot delete your posts in this forum
You cannot vote in polls in this forum
You cannot attach files in this forum
You cannot download files in this forum