Today is a free download without charge Download

Ну, погоди! 17-18 выпуски (Вячеслав Котеночкин, Владимир Тарасов) [1993, мультфильм, комедия, семейный, DVDRip]

Reply to topic
 
Author
Message

Omen ®

Longevity: 7 years 11 months

Posts: 181087

Торрент-статистика

Post 15-Jun-2013 16:29

[Quote]

Ну, погоди! 17-18 выпуски
Страна: Россия
Жанр: мультфильм, комедия, семейный
Продолжительность: 00:09:36 и 00:10:11
Год выпуска: 1993
-
Перевод: Не требуется
Русские субтитры: нет
-
Режиссёр: Вячеслав Котеночкин, Владимир Тарасов
Роли озвучивали: Клара Румянова, Анатолий Папанов
-
Описание: Веселые приключения неразлучной парочки — хулигана Волка и смышленого Зайца. Любимые с детства сцены погонь, ссор и примирений, шутки и мелодии.
-
За исходник спасибо Vovnik (с чешского двд)
-
Качество: DVDRip
Формат: AVI
Видео 1: 640x480 (1.33:1), 25 fps, XviD build 65 ~2224 kbps avg, 0.29 bit/pixel
Аудио 1: 48 kHz, AC3 Dolby Digital, 2/0 (L,R) ch, ~192 kbps
Видео 2: 640x480 (1.33:1), 25 fps, XviD build 65 ~2237 kbps avg, 0.29 bit/pixel
Аудио 2: 48 kHz, AC3 Dolby Digital, 2/0 (L,R) ch, ~192 kbps
Субтитры: отсутствуют

Подробные технические данные

GeneralComplete name : D:\Мульты\Ну погоди!\Ну, погоди! 17-18 выпуски.1993.DVDRip.XviD.AC3\Ну, погоди! 17 выпуск.1993.DVDRip.XviD.AC3.aviFormat : AVIFormat/Info : Audio Video InterleaveFile size : 167 MiBDuration : 9mn 36sOverall bit rate : 2 426 KbpsWriting application : VirtualDubMod 1.5.10.2 (build 2540/release)Writing library : VirtualDubMod build 2540/release
VideoID : 0Format : MPEG-4 VisualFormat profile : Advanced [email protected] settings, BVOP : 1Format settings, QPel : NoFormat settings, GMC : No warppointsFormat settings, Matrix : CustomCodec ID : XVIDCodec ID/Hint : XviDDuration : 9mn 36sBit rate : 2 224 KbpsWidth : 640 pixelsHeight : 480 pixelsDisplay aspect ratio : 4:3Frame rate : 25.000 fpsColor space : YUVChroma subsampling : 4:2:0Bit depth : 8 bitsScan type : ProgressiveCompression mode : LossyBits/(Pixel*Frame) : 0.290Stream size : 153 MiB (92%)Writing library : XviD 65
AudioID : 1Format : AC-3Format/Info : Audio Coding 3Mode extension : CM (complete main)Format settings, Endianness : BigCodec ID : 2000Duration : 9mn 36sBit rate mode : ConstantBit rate : 192 KbpsChannel(s) : 2 channelsChannel positions : Front: L RSampling rate : 48.0 KHzBit depth : 16 bitsCompression mode : LossyStream size : 13.2 MiB (8%)Alignment : Split accross interleavesInterleave, duration : 40 ms (1.00 video frame)Interleave, preload duration : 500 ms
-
GeneralComplete name : D:\Мульты\Ну погоди!\Ну, погоди! 17-18 выпуски.1993.DVDRip.XviD.AC3\Ну, погоди! 18 выпуск.1993.DVDRip.XviD.AC3.aviFormat : AVIFormat/Info : Audio Video InterleaveFile size : 178 MiBDuration : 10mn 11sOverall bit rate : 2 439 KbpsWriting application : VirtualDubMod 1.5.10.2 (build 2540/release)Writing library : VirtualDubMod build 2540/release
VideoID : 0Format : MPEG-4 VisualFormat profile : Advanced [email protected] settings, BVOP : 1Format settings, QPel : NoFormat settings, GMC : No warppointsFormat settings, Matrix : CustomCodec ID : XVIDCodec ID/Hint : XviDDuration : 10mn 11sBit rate : 2 237 KbpsWidth : 640 pixelsHeight : 480 pixelsDisplay aspect ratio : 4:3Frame rate : 25.000 fpsColor space : YUVChroma subsampling : 4:2:0Bit depth : 8 bitsScan type : ProgressiveCompression mode : LossyBits/(Pixel*Frame) : 0.291Stream size : 163 MiB (92%)Writing library : XviD 65
AudioID : 1Format : AC-3Format/Info : Audio Coding 3Mode extension : CM (complete main)Format settings, Endianness : BigCodec ID : 2000Duration : 10mn 11sBit rate mode : ConstantBit rate : 192 KbpsChannel(s) : 2 channelsChannel positions : Front: L RSampling rate : 48.0 KHzBit depth : 16 bitsCompression mode : LossyStream size : 14.0 MiB (8%)Alignment : Split accross interleavesInterleave, duration : 40 ms (1.00 video frame)Interleave, preload duration : 500 ms

Скриншоты

17 выпуск

-
18 выпуск
Other forum [Profile] [PM]
Similar theme
Forum Topic Author Torrent Replies Last Post
./templates/default/images/folder_dl.gif Обучающая и развивающая литература, учебники Подборка | Раскраски Ну, погоди! (2016) [JPG] }{@R0N
1 | 0

0 | 3780

10

2017-03-28 12:14
}{@R0N Latest
Display posts from previous:    
Reply to topic

The time now is: Today 18:03

All times are GMT + 3 Hours



You cannot post new topics in this forum
You cannot reply to topics in this forum
You cannot edit your posts in this forum
You cannot delete your posts in this forum
You cannot vote in polls in this forum
You cannot attach files in this forum
You cannot download files in this forum