Today is a free download without charge Download

Аркона - Ярило [2010, Pagan Folk Metal, HDRip]

Reply to topic
 
Author
Message

Omen ®

Longevity: 8 years 4 months

Posts: 181087

Торрент-статистика

Post 15-Jun-2013 16:29

[Quote]

Жанр: Pagan Folk Metal :: Страна: Russia :: Год издания: 2010 :: Продолжительность: 00:02:32Качество: HDRip :: Контейнер: M2TS :: Видео кодек: MPEG Video :: Аудио кодек: MPEG AudioВидео: MPEG Video 720X576 (4:3) 18.4mbps 25.000fps :: Аудио: MPEG Audio 384kbps 48.0kHz 2ch:: Оф. сайт ::

Отчёт Mediainfo

Общее
Идентификатор : 1 (0x1)
Полное имя : D:\µTorrent\Аркона - Ярилo.m2t
Формат : MPEG-TS
Размер файла : 359 Мбайт
Продолжительность : 2 м. 32 с.
Режим общего битрейта : Постоянный
Общий поток : 19,8 Мбит/сек
Видео
Идентификатор : 4096 (0x1000)
Идентификатор меню : 1 (0x1)
Формат : MPEG Video
Версия формата : Version 2
Профиль формата : [email protected]
Параметр BVOP формата : Да
Параметр матрицы формата : Выборочная
Параметр GOP формата : Variable
Идентификатор кодека : 2
Продолжительность : 2 м. 32 с.
Битрейт : 18,4 Мбит/сек
Максимальный битрейт : 6900 Кбит/сек
Ширина : 720 пикселей
Высота : 576 пикселей
Соотношение сторон : 4:3
Частота кадров : 25,000 кадров/сек
Стандарт вещания : PAL
Цветовое пространство : YUV
Субдискретизация насыщенности : 4:2:0
Битовая глубина : 8 бит
Тип развёртки : Прогрессивная
Метод сжатия : С потерями
Бит/(Пиксели*Кадры) : 1.774
TimeCode_FirstFrame : 00:00:00:00
TimeCode_Source : Group of pictures header
Размер потока : 334 Мбайт (93%)
Аудио
Идентификатор : 4098 (0x1002)
Идентификатор меню : 1 (0x1)
Формат : MPEG Audio
Версия формата : Version 1
Профиль формата : Layer 2
Идентификатор кодека : 3
Продолжительность : 2 м. 32 с.
Вид битрейта : Постоянный
Битрейт : 384 Кбит/сек
Каналы : 2 канала
Частота : 48,0 КГц
Метод сжатия : С потерями
Задержка видео : -80 мс.
Размер потока : 6,97 Мбайт (2%)
Меню
Идентификатор : 110 (0x6E)
Идентификатор меню : 1 (0x1)
Список : 4096 (0x1000) (MPEG Video) / 4098 (0x1002) (MPEG Audio)
Максимальный битрейт : 19760000

Скриншоты

Other forum [Profile] [PM]
Display posts from previous:    
Reply to topic

The time now is: Today 03:34

All times are GMT + 3 Hours



You cannot post new topics in this forum
You cannot reply to topics in this forum
You cannot edit your posts in this forum
You cannot delete your posts in this forum
You cannot vote in polls in this forum
You cannot attach files in this forum
You cannot download files in this forum