Today is a free download without charge Download

Погоня за тенью / Сезон: 1 Серии: 1 - 24 из 24 (Гузель Киреева, Виктор Демент.) [2010, Детектив, криминал, сериал, 3хDVD9] R5

Reply to topic
 
Author
Message

nsa1977 ®

Gender:

Longevity: 11 years

Posts: 1470

Location: Пенза

Торрент-статистика

Post 19-Aug-2011 19:44

[Quote]

Погоня за тенью
Серии: 1 - 24 из 24

Год выпуска: 2010
Производство: Россия; «Телекомпания НТВ»; «СинтезФильм».
Дистрибьютор: «Русское счастье Энтертеймент»
Жанр: Детектив, криминал, сериал
Продолжительность: 1140 мин.
Субтитры: нет.
Режиссёр: Гузель Киреева, Виктор Демент.--В ролях:
Кирилл Сафонов, Владимир Большов, Сергей Громов, Ирина Ефремова (II), Дмитрий Матвеев, Анна Якунина, Наталья Самсонова, Алевтина Добрынина, Вячеслав Титов, Артур Архипов, Наталья Бардо, Руслан Джайбеков, Михаил Колядин, Ростислав Крохин, Максим Аверин-- --Описание:
Подполковник Сергей Михайлович Соболев — бывший СОБРовец, переведенный в МУР из-за драки с журналистом. Активный и совестливый человек, он зажигает всех своей энергией, и под его руководством за короткое время 16-ый отдел раскрывает много странных и запутанных дел. Единственный человек, который на дух не переносит Соболева — майор Виктория Бережная.
Два года назад из-за романа с Соболевым она бросила мужа, но Сергей внезапно исчез из ее жизни без объяснений. Сыскари 16-ого отдела — люди разных социальных прослоек. У каждого из них есть проблемы личного характера, но все они — настоящие профессионалы, для которых спасение попавшего в беду человека — дело чести и совести.--Качество: DVD9
Формат: DVD-Video
Видео кодек: MPEG2
Аудио кодек: AC3
Видео: PAL 16:9 (720x576) VBR Auto Letterboxed 25.00fps ~2600kbps
Аудио: Russian (Dolby AC3, 2 ch) AC3 48000Hz stereo 96kbps
Скачать: С Э М П Л DVD1. С Э М П Л DVD2. С Э М П Л DVD3.--

Краткое содержание сериала


1-я серия «Осторожно, дети!»
Первым делом группы Соболева становится поиск исчезнувшей из детдома девочки Тани Кострыкиной. Директор утверждает, что девочку накануне забрал молодой человек, представившийся доверенным лицом приемных родителей. Когда был установлен владелец машины, на которой увезли Таню, сыщики вышли на ассистента фотографа Сидорского…
2-я серия «Ничего личного.»
В отдел попала видеозапись обращения похищенной Кристины Казачковой с требованием освободить задержанного за вооруженный налет Петра Мальцева. Ни беседа с матерью Петра, ни разговор с братом Кристины не пролили свет на то, как девушка может быть связана с бандитом. Наблюдая за подельником Мальцева — неким Матросовым, Соболев узнал о планах налетчиков собрать деньги для защиты Петра в суде…
3-я серия «Брат мой.»
Еремин поручил группе Соболева дело исчезнувшего бизнесмена Андрея Артамонова. Скоро суд должен признать его правопреемником старшего сына Максима, и Бережная принимает решение первым делом проверить состояние бизнеса Артамоновых. Войдя в доверие к Максиму и сопровождая его на вечеринку в ночной клуб, Виктория узнает, что у его отца был конфликт на почве раздела долей с партнером — Алексеем Мартовым. Лаврушин тем временем находит в Интернете фотографии, указывающие на то, что Мартов встречался с Артамоновым накануне его исчезновения…
4-я серия «Сквозь тернии.»
К Соболеву обращается известный композитор Сергей Веснин с просьбой разыскать дочь — писательницу Марию. Известно, что накануне она встречалась в ресторане со своим литературным агентом. Со слов сотрудников ресторана, та щедро угощала Марию водкой. Но задержанная Брегова утверждает, что довезла свою протеже до железнодорожной станции, откуда писательница должна была ехать домой. Обследуя район предполагаемого исчезновения Марии, Соболеву и Бережной удается найти цыган, видевших девушку…
5-я серия «Последняя надежда.»
Исчез Валя Котов — внук олигарха Захара Бухарова. Со слов деда, мальчика мог похитить только его отец — бывший оперативник Андрей Котов. Соболев и Лаврушин выезжают на задержание, но близкий друг опера — начальник местного ОВД «Пятницкий» майор Глухарёв — выводит из строя лифт, и друзья попадают в западню. Тем временем Бережная из беседы с матерью Андрея узнает, что Бухаров всегда был против брака Котова со своей дочерью Ириной, а после ее трагической гибели в автокатастрофе всячески препятствовал общению Вали с отцом…
6-я серия «Жестокие уроки.»
К Соболеву обращается Иван Слепцов с просьбой разыскать своего пожилого отца Николая Степановича, исчезнувшего с собственной дачи. И Иван, и соседи пропавшего в один голос утверждают: исчезновение Слепцова-старшего связано с деятельностью секретного авиаконструкторского бюро. Но Соболев находит и другой мотив: завещание пропавшего, по которому его квартира отходит сестре, а не сыну…
7-я серия «Дети леса.»
Пропала юная модель Лена. Лаврушин установил, что исчезнувшая девушка работала в агентстве, из которого регулярно бесследно исчезали девушки. Директор агентства утверждает, что помогал всем своим «воспитанницам» удачно устроить личную жизнь. От него же сыщики узнали о спонсоре Лены — олигархе Даниле Смирнове. Но и это оказался ложный след: накануне исчезновения Смирнов выгнал Лену, попросив водителя отвезти ее домой. Кто же причастен к похищению девушки — шофер или кто-то из сотрудников модельного агентства?
8-я серия «Футболист.»
Накануне заключения сделки по переходу в другой клуб бесследно исчезает перспективный молодой футболист Максим Мышкин. Соболев встречается с врачом клуба-продавца Виктором Шубиным и его директором — Ладой Солнцевой. Разговор получается весьма странным, и Сергей начинает подозревать их в похищении, но внезапно выясняется, что письмо с требованием выкупа пришло хозяину клуба-покупателя еще до исчезновения игрока…
9-я серия «Сложный выбор.»
В группу Соболева обратился за помощью некто Алексей Огородников, утверждающий, что неизвестные злоумышленники сначала похитили его самого, а затем и жену Галину. В милиции, якобы, ему ничем помочь не смогли. Однако и следователь ОВД, в которое сначала обратился Алексей, и его начальник утверждают, что никакого заявления к ним не поступало…
10-я серия «Старый волк.»
По просьбе своего товарища Беспалов вышел из отпуска, чтобы заняться расследованием убийства известного медвежатника Семёна Лыкова. Известно, что незадолго до гибели Лыков встречался с недавно освободившимся авторитетом Макаровым. Беспалов вспоминает, что много лет назад заключил с ним сделку: помог оформить опекунство над его дочерью, которой грозил детдом, а в обмен получил признательные показания…
11-я серия «Фальшивый парфюм.»
Бережная приступает к поискам бесследно исчезнувшей после приезда в Россию француженки Жоэль Жеро. Присланный ей в помощь инспектор-француз Давид Гоше — весьма галантен и даже пытается ухаживать за Викторией. В ходе расследования выясняется, что Жеро, несмотря на приставленного к ней переводчика, заказала себе другого гида — Милу Мурашову. Но та утверждает, что француженка сразу отказалась от ее услуг…
12-я и 13-я серии «На кончике иглы.»
Во время спецоперации по ликвидации нарколаборатории был тяжело ранен заложник — школьник Олег Фирсов. Лаврушин просил оставить это дело для группы, но Соболев передал его в Отдел по борьбе с наркотиками. Но Кирилл не сдался и однажды, навещая лежащего в коме Олега, познакомился с его сестрой Дашей. От нее он узнал, что Фирсов активно боролся с распространением наркотиков в школе. А тем временем старушка добивается приема у замминистра МВД, который отдает поручение найти ее пропавшего квартиранта Тахира Тачмамедова. Поиски поручены Кириллу…
14-я серия «Опасные игры.»
Группа Соболева расследует дело о похищении школьника Димы — сына предпринимателя Калинина, задолжавшего крупную сумму влиятельному бизнесмену Масленникову. Освободив мальчика из офиса последнего, Соболев задерживает и похитителя, но с его связями заключение оказывается недолгим. Едва оказавшись на воле, амбициозный и самовлюбленный Масленников принимает решение… отомстить полковнику!
15-я серия «Сорняки.»
Соболев был восстановлен в должности начальника отдела и тут же приступил к поискам пропавшего детдомовца Коли Краснова. Известно, что незадолго до исчезновения мальчик стал много «зарабатывать» и щедро делился со старшеклассниками деньгами. Пока группа вела допрос свидетелей, владелец нелегального склада оружия Кондратьев обнаружил у себя в помещении Колю с раненной подругой Дашей и решил… избавиться от детей.
16-я серия «Жертва искусства.»
Пропал антиквар Александр Левицкий. Со слов жены, он с юных лет дружил с талантливым художником-копиистом Дмитрием Сохниным. Был еще один друг юности — однокурсник по художественному училищу, но их пути разошлись. Решив пообщаться с коллегами Левицкого, Сергей посетил его галерею, где столкнулся с неким Монаховым, клиентом и кредитором антиквара, и стал свидетелем того, как тот угрожает сотруднику расправой…
17-я серия «Аттракцион.»
Во время прогулки в парке бесследно исчезла маленькая Вера. Ее родители разведены, и первым подозреваемым становится отец девочки — профессор из Бельгии Жан Ван Дормель. Правда, Соболев и Бережная быстро понимают, что он непричастен. Тогда их внимание привлекает новый муж мамы Веры…
18-я серия «Ищите женщину.»
Пока Соболев продолжает вести расследование прежнего дела, к Бережной обращается одинокая пенсионерка с просьбой разыскать ее квартирантку — бывшую победительницу конкурса красоты Жанну Тихонову. Внезапно дела пересекаются: подозрение падает на уже известную сыщикам Ольгу Низову — любовницу Лобова.
19-я серия «Пожарник.»
Группа Соболева ведет поиски инспектора пожарного надзора Нины Коротковой. Накануне исчезновения она проверяла ресторан и приняла решение о закрытии. Владелец заведения уверяет, что непричастен, и дает сыщикам новую зацепку в виде загадочного капитана милиции…
20-я серия «Наследник победы.»
На глазах у собственной невесты похищен пенсионер Фёдор Топорков. Известно, что накануне исчезновения он должен был встретиться со скупщиком старинных военных наград. Проанализировав ряд аналогичных дел из архива, Ждан выясняет, что многие из пропавших пенсионеров жили в одном районе и незадолго до смерти были прописаны в заброшенную деревню Похмелкино…
21-я серия «Выкуп.»
Во время велопрогулки бесследно исчез школьник Слава Сенцов. Отец мальчика, крупный чиновник Минздрава Николай Сенцов, убежден: его сына похитил могущественный бизнесмен Олег Гурьев, цель которого — добиться разрешения на закупку заведомо просроченных лекарственных препаратов.
22-я серия «Затмение.»
Беспалов с женой пытаются отговорить свою дочь Елену делать аборт. Тем временем Соболев приступает к поискам младенца Алёши, сына высокопоставленного чиновника. Выясняется, что няня, гулявшая с мальчиком, оставила ребенка без присмотра, а потом придумала версию о нападении. Ключ к раскрытию дела неожиданно находит Беспалов во время разговора с лечащим врачом дочери…
23-я серия «Схватка… с того света.»
Соболев берет отпуск и готовится отдохнуть вместе с Ксенией, но планы срываются: после романтического ужина в ресторане и внезапного покушения Соболев, преследуя нападавшего, тяжело ранит случайную прохожую. Сергея отстраняют от службы и помещают в СИЗО, инкриминируя хулиганство и превышение полномочий. У Соболева есть версия, кому это было выгодно…
24-я серия «Схватка. Большой куш.»
Жена адвоката Захарова заявляет об исчезновении мужа. Она уверена, что его похищение связано с попыткой Управления по экономическим преступлениям присвоить себе фирму «Цезарь». Занимаясь розыском Вадима, Беспалов и Лаврик следят за неким Чеботаревым, передвигающимся на автомобиле адвоката. Задержав его при попытке продать машину, сыщики понимают: несмотря ни на что, Чеботарев непричастен к похищению…

MediaInfo

Общее
Полное имя : E:\Погоня за тенью 3xDVD9\DVD2\VIDEO_TS\VIDEO_TS.BUP
Формат : DVD Video
Профиль формата : Menu
Размер файла : 14,0 Кбайт
Видео
Идентификатор : 224 (0xE0)
Формат : MPEG Video
Версия формата : Version 2
Вид битрейта : Переменный
Ширина : 720 пикселей
Высота : 576 пикселей
Соотношение сторон : 4:3
Частота кадров : 25,000 кадров/сек
Стандарт вещания : PAL
Метод сжатия : С потерями
Общее
Полное имя : E:\Погоня за тенью 3xDVD9\DVD2\VIDEO_TS\VIDEO_TS.IFO
Формат : DVD Video
Профиль формата : Menu
Размер файла : 14,0 Кбайт
Видео
Идентификатор : 224 (0xE0)
Формат : MPEG Video
Версия формата : Version 2
Вид битрейта : Переменный
Ширина : 720 пикселей
Высота : 576 пикселей
Соотношение сторон : 4:3
Частота кадров : 25,000 кадров/сек
Стандарт вещания : PAL
Метод сжатия : С потерями
Общее
Полное имя : E:\Погоня за тенью 3xDVD9\DVD2\VIDEO_TS\VIDEO_TS.VOB
Формат : MPEG-PS
Размер файла : 48,0 Кбайт
Продолжительность : 40 мс.
Общий поток : 9830 Кбит/сек
Видео
Идентификатор : 224 (0xE0)
Формат : MPEG Video
Версия формата : Version 2
Профиль формата : [email protected]
Параметр BVOP формата : Нет
Параметр матрицы формата : По умолчанию
Продолжительность : 40 мс.
Вид битрейта : Переменный
Максимальный битрейт : 9000 Кбит/сек
Ширина : 720 пикселей
Высота : 576 пикселей
Соотношение сторон : 4:3
Частота кадров : 25,000 кадров/сек
Стандарт вещания : PAL
Цветовое пространство : YUV
Субдискретизация насыщенности : 4:2:0
Битовая глубина : 8 бит
Тип развёртки : Прогрессивная
Порядок развёртки : Верхнее поле первое
Метод сжатия : С потерями
Меню
Общее
Полное имя : E:\Погоня за тенью 3xDVD9\DVD2\VIDEO_TS\VTS_01_0.BUP
Формат : DVD Video
Профиль формата : Program
Размер файла : 254 Кбайт
Продолжительность : 49 м.
Общий поток : 707 бит/сек
Видео
Идентификатор : 224 (0xE0)
Формат : MPEG Video
Версия формата : Version 2
Продолжительность : 49 м.
Вид битрейта : Переменный
Ширина : 720 пикселей
Высота : 576 пикселей
Соотношение сторон : 16:9
Частота кадров : 25,000 кадров/сек
Стандарт вещания : PAL
Метод сжатия : С потерями
Аудио
Идентификатор : 128 (0x80)
Формат : AC-3
Формат/Информация : Audio Coding 3
Продолжительность : 49 м.
Каналы : 2 канала
Частота : 48,0 КГц
Метод сжатия : С потерями
Язык : Russian
Меню #1
Продолжительность : 47 м.
00:00:00.000 : Chapter 1
00:07:05.800 : Chapter 2
00:15:05.320 : Chapter 3
00:21:56.320 : Chapter 4
00:29:49.240 : Chapter 5
00:37:50.320 : Chapter 6
List (Audio) : 0
Меню #2
Продолжительность : 48 м.
00:00:00.000 : Chapter 1
00:07:29.560 : Chapter 2
00:14:21.760 : Chapter 3
00:22:03.040 : Chapter 4
00:31:07.480 : Chapter 5
00:40:12.880 : Chapter 6
List (Audio) : 0
Меню #3
Продолжительность : 46 м.
00:00:00.000 : Chapter 1
00:07:23.440 : Chapter 2
00:14:58.840 : Chapter 3
00:20:54.160 : Chapter 4
00:31:01.480 : Chapter 5
00:39:09.400 : Chapter 6
List (Audio) : 0
Меню #4
Продолжительность : 48 м.
00:00:00.000 : Chapter 1
00:07:46.480 : Chapter 2
00:15:14.560 : Chapter 3
00:22:37.240 : Chapter 4
00:31:06.760 : Chapter 5
00:38:52.480 : Chapter 6
List (Audio) : 0
Меню #5
Продолжительность : 49 м.
00:00:00.000 : Chapter 1
00:08:13.840 : Chapter 2
00:16:54.280 : Chapter 3
00:22:49.960 : Chapter 4
00:32:27.880 : Chapter 5
00:41:18.880 : Chapter 6
List (Audio) : 0
Меню #6
Продолжительность : 48 м.
00:00:00.000 : Chapter 1
00:07:42.400 : Chapter 2
00:15:14.560 : Chapter 3
00:23:02.560 : Chapter 4
00:30:54.280 : Chapter 5
00:39:18.640 : Chapter 6
List (Audio) : 0
Меню #7
Продолжительность : 47 м.
00:00:00.000 : Chapter 1
00:06:44.080 : Chapter 2
00:14:40.960 : Chapter 3
00:20:53.440 : Chapter 4
00:29:53.800 : Chapter 5
00:39:02.080 : Chapter 6
List (Audio) : 0
Меню #8
Продолжительность : 48 м.
00:00:00.000 : Chapter 1
00:08:16.960 : Chapter 2
00:16:07.120 : Chapter 3
00:23:29.440 : Chapter 4
00:30:45.640 : Chapter 5
00:40:34.480 : Chapter 6
List (Audio) : 0
Общее
Полное имя : E:\Погоня за тенью 3xDVD9\DVD2\VIDEO_TS\VTS_01_0.IFO
Формат : DVD Video
Профиль формата : Program
Размер файла : 254 Кбайт
Продолжительность : 49 м.
Общий поток : 707 бит/сек
Видео
Идентификатор : 224 (0xE0)
Формат : MPEG Video
Версия формата : Version 2
Продолжительность : 49 м.
Вид битрейта : Переменный
Ширина : 720 пикселей
Высота : 576 пикселей
Соотношение сторон : 16:9
Частота кадров : 25,000 кадров/сек
Стандарт вещания : PAL
Метод сжатия : С потерями
Аудио
Идентификатор : 128 (0x80)
Формат : AC-3
Формат/Информация : Audio Coding 3
Продолжительность : 49 м.
Каналы : 2 канала
Частота : 48,0 КГц
Метод сжатия : С потерями
Язык : Russian
Меню #1
Продолжительность : 47 м.
00:00:00.000 : Chapter 1
00:07:05.800 : Chapter 2
00:15:05.320 : Chapter 3
00:21:56.320 : Chapter 4
00:29:49.240 : Chapter 5
00:37:50.320 : Chapter 6
List (Audio) : 0
Меню #2
Продолжительность : 48 м.
00:00:00.000 : Chapter 1
00:07:29.560 : Chapter 2
00:14:21.760 : Chapter 3
00:22:03.040 : Chapter 4
00:31:07.480 : Chapter 5
00:40:12.880 : Chapter 6
List (Audio) : 0
Меню #3
Продолжительность : 46 м.
00:00:00.000 : Chapter 1
00:07:23.440 : Chapter 2
00:14:58.840 : Chapter 3
00:20:54.160 : Chapter 4
00:31:01.480 : Chapter 5
00:39:09.400 : Chapter 6
List (Audio) : 0
Меню #4
Продолжительность : 48 м.
00:00:00.000 : Chapter 1
00:07:46.480 : Chapter 2
00:15:14.560 : Chapter 3
00:22:37.240 : Chapter 4
00:31:06.760 : Chapter 5
00:38:52.480 : Chapter 6
List (Audio) : 0
Меню #5
Продолжительность : 49 м.
00:00:00.000 : Chapter 1
00:08:13.840 : Chapter 2
00:16:54.280 : Chapter 3
00:22:49.960 : Chapter 4
00:32:27.880 : Chapter 5
00:41:18.880 : Chapter 6
List (Audio) : 0
Меню #6
Продолжительность : 48 м.
00:00:00.000 : Chapter 1
00:07:42.400 : Chapter 2
00:15:14.560 : Chapter 3
00:23:02.560 : Chapter 4
00:30:54.280 : Chapter 5
00:39:18.640 : Chapter 6
List (Audio) : 0
Меню #7
Продолжительность : 47 м.
00:00:00.000 : Chapter 1
00:06:44.080 : Chapter 2
00:14:40.960 : Chapter 3
00:20:53.440 : Chapter 4
00:29:53.800 : Chapter 5
00:39:02.080 : Chapter 6
List (Audio) : 0
Меню #8
Продолжительность : 48 м.
00:00:00.000 : Chapter 1
00:08:16.960 : Chapter 2
00:16:07.120 : Chapter 3
00:23:29.440 : Chapter 4
00:30:45.640 : Chapter 5
00:40:34.480 : Chapter 6
List (Audio) : 0
Общее
Полное имя : E:\Погоня за тенью 3xDVD9\DVD2\VIDEO_TS\VTS_01_0.VOB
Формат : MPEG-PS
Размер файла : 20,0 Мбайт
Продолжительность : 14 с.
Общий поток : 11,2 Мбит/сек
Видео
Идентификатор : 224 (0xE0)
Формат : MPEG Video
Версия формата : Version 2
Профиль формата : [email protected]
Параметр BVOP формата : Да
Параметр матрицы формата : По умолчанию
Параметр GOP формата : M=3, N=15
Продолжительность : 14 с.
Вид битрейта : Переменный
Битрейт : 10,8 Мбит/сек
Максимальный битрейт : 4250 Кбит/сек
Ширина : 720 пикселей
Высота : 576 пикселей
Соотношение сторон : 16:9
Частота кадров : 25,000 кадров/сек
Стандарт вещания : PAL
Цветовое пространство : YUV
Субдискретизация насыщенности : 4:2:0
Битовая глубина : 8 бит
Тип развёртки : Чересстрочная
Порядок развёртки : Нижнее поле первое
Метод сжатия : С потерями
Бит/(Пиксели*Кадры) : 1.041
Размер потока : 19,2 Мбайт (96%)
Аудио
Идентификатор : 189 (0xBD)-128 (0x80)
Формат : AC-3
Формат/Информация : Audio Coding 3
Расширение режима : CM (complete main)
Режим смешивания : DVD-Video
Продолжительность : 14 с.
Вид битрейта : Постоянный
Битрейт : 192 Кбит/сек
Каналы : 2 канала
Расположение каналов : Front: L R
Частота : 48,0 КГц
Битовая глубина : 16 бит
Метод сжатия : С потерями
Размер потока : 345 Кбайт (2%)
Текст #1
Идентификатор : 189 (0xBD)-32 (0x20)
Формат : RLE
Формат/Информация : Run-length encoding
Режим смешивания : DVD-Video
Текст #2
Идентификатор : 189 (0xBD)-33 (0x21)
Формат : RLE
Формат/Информация : Run-length encoding
Режим смешивания : DVD-Video
Текст #3
Идентификатор : 189 (0xBD)-34 (0x22)
Формат : RLE
Формат/Информация : Run-length encoding
Режим смешивания : DVD-Video
Меню
Общее
Полное имя : E:\Погоня за тенью 3xDVD9\DVD2\VIDEO_TS\VTS_01_1.VOB
Формат : MPEG-PS
Размер файла : 1024 Мбайт
Продолжительность : 5 м. 30 с.
Общий поток : 26,0 Мбит/сек
Видео
Идентификатор : 224 (0xE0)
Формат : MPEG Video
Версия формата : Version 2
Профиль формата : [email protected]
Параметр BVOP формата : Да
Параметр матрицы формата : По умолчанию
Параметр GOP формата : M=3, N=12
Продолжительность : 5 м. 30 с.
Вид битрейта : Переменный
Битрейт : 25,4 Мбит/сек
Максимальный битрейт : 9200 Кбит/сек
Ширина : 720 пикселей
Высота : 576 пикселей
Соотношение сторон : 16:9
Частота кадров : 25,000 кадров/сек
Стандарт вещания : PAL
Цветовое пространство : YUV
Субдискретизация насыщенности : 4:2:0
Битовая глубина : 8 бит
Тип развёртки : Прогрессивная
Метод сжатия : С потерями
Бит/(Пиксели*Кадры) : 2.446
Размер потока : 1000 Мбайт (98%)
Аудио
Идентификатор : 189 (0xBD)-128 (0x80)
Формат : AC-3
Формат/Информация : Audio Coding 3
Расширение режима : CM (complete main)
Режим смешивания : DVD-Video
Продолжительность : 5 м. 30 с.
Вид битрейта : Постоянный
Битрейт : 96,0 Кбит/сек
Каналы : 2 канала
Расположение каналов : Front: L R
Частота : 48,0 КГц
Битовая глубина : 16 бит
Метод сжатия : С потерями
Размер потока : 3,78 Мбайт (0%)
Меню
Общее
Полное имя : E:\Погоня за тенью 3xDVD9\DVD2\VIDEO_TS\VTS_01_2.VOB
Формат : MPEG-PS
Размер файла : 1024 Мбайт
Продолжительность : 4 м. 39 с.
Общий поток : 30,8 Мбит/сек
Видео
Идентификатор : 224 (0xE0)
Формат : MPEG Video
Версия формата : Version 2
Профиль формата : [email protected]
Параметр BVOP формата : Да
Параметр матрицы формата : По умолчанию
Параметр GOP формата : M=3, N=12
Продолжительность : 4 м. 38 с.
Вид битрейта : Переменный
Битрейт : 30,1 Мбит/сек
Максимальный битрейт : 9200 Кбит/сек
Ширина : 720 пикселей
Высота : 576 пикселей
Соотношение сторон : 16:9
Частота кадров : 25,000 кадров/сек
Стандарт вещания : PAL
Цветовое пространство : YUV
Субдискретизация насыщенности : 4:2:0
Битовая глубина : 8 бит
Тип развёртки : Прогрессивная
Метод сжатия : С потерями
Бит/(Пиксели*Кадры) : 2.901
Размер потока : 999 Мбайт (98%)
Аудио
Идентификатор : 189 (0xBD)-128 (0x80)
Формат : AC-3
Формат/Информация : Audio Coding 3
Расширение режима : CM (complete main)
Режим смешивания : DVD-Video
Продолжительность : 4 м. 39 с.
Вид битрейта : Постоянный
Битрейт : 96,0 Кбит/сек
Каналы : 2 канала
Расположение каналов : Front: L R
Частота : 48,0 КГц
Битовая глубина : 16 бит
Метод сжатия : С потерями
Задержка видео : -536 мс.
Размер потока : 3,19 Мбайт (0%)
Меню
Общее
Полное имя : E:\Погоня за тенью 3xDVD9\DVD2\VIDEO_TS\VTS_01_3.VOB
Формат : MPEG-PS
Размер файла : 1024 Мбайт
Продолжительность : 5 м. 57 с.
Общий поток : 24,0 Мбит/сек
Видео
Идентификатор : 224 (0xE0)
Формат : MPEG Video
Версия формата : Version 2
Профиль формата : [email protected]
Параметр BVOP формата : Да
Параметр матрицы формата : По умолчанию
Параметр GOP формата : M=3, N=12
Продолжительность : 5 м. 57 с.
Вид битрейта : Переменный
Битрейт : 23,5 Мбит/сек
Максимальный битрейт : 9200 Кбит/сек
Ширина : 720 пикселей
Высота : 576 пикселей
Соотношение сторон : 16:9
Частота кадров : 25,000 кадров/сек
Стандарт вещания : PAL
Цветовое пространство : YUV
Субдискретизация насыщенности : 4:2:0
Битовая глубина : 8 бит
Тип развёртки : Прогрессивная
Метод сжатия : С потерями
Бит/(Пиксели*Кадры) : 2.262
Размер потока : 998 Мбайт (97%)
Аудио
Идентификатор : 189 (0xBD)-128 (0x80)
Формат : AC-3
Формат/Информация : Audio Coding 3
Расширение режима : CM (complete main)
Режим смешивания : DVD-Video
Продолжительность : 5 м. 57 с.
Вид битрейта : Постоянный
Битрейт : 96,0 Кбит/сек
Каналы : 2 канала
Расположение каналов : Front: L R
Частота : 48,0 КГц
Битовая глубина : 16 бит
Метод сжатия : С потерями
Задержка видео : -616 мс.
Размер потока : 4,09 Мбайт (0%)
Меню
Общее
Полное имя : E:\Погоня за тенью 3xDVD9\DVD2\VIDEO_TS\VTS_01_4.VOB
Формат : MPEG-PS
Размер файла : 1024 Мбайт
Продолжительность : 5 м. 19 с.
Общий поток : 26,9 Мбит/сек
Видео
Идентификатор : 224 (0xE0)
Формат : MPEG Video
Версия формата : Version 2
Профиль формата : [email protected]
Параметр BVOP формата : Да
Параметр матрицы формата : По умолчанию
Параметр GOP формата : M=3, N=12
Продолжительность : 5 м. 18 с.
Вид битрейта : Переменный
Битрейт : 26,3 Мбит/сек
Максимальный битрейт : 9200 Кбит/сек
Ширина : 720 пикселей
Высота : 576 пикселей
Соотношение сторон : 16:9
Частота кадров : 25,000 кадров/сек
Стандарт вещания : PAL
Цветовое пространство : YUV
Субдискретизация насыщенности : 4:2:0
Битовая глубина : 8 бит
Тип развёртки : Прогрессивная
Метод сжатия : С потерями
Бит/(Пиксели*Кадры) : 2.536
Размер потока : 998 Мбайт (98%)
Аудио
Идентификатор : 189 (0xBD)-128 (0x80)
Формат : AC-3
Формат/Информация : Audio Coding 3
Расширение режима : CM (complete main)
Режим смешивания : DVD-Video
Продолжительность : 5 м. 19 с.
Вид битрейта : Постоянный
Битрейт : 96,0 Кбит/сек
Каналы : 2 канала
Расположение каналов : Front: L R
Частота : 48,0 КГц
Битовая глубина : 16 бит
Метод сжатия : С потерями
Задержка видео : -592 мс.
Размер потока : 3,65 Мбайт (0%)
Меню
Общее
Полное имя : E:\Погоня за тенью 3xDVD9\DVD2\VIDEO_TS\VTS_01_5.VOB
Формат : MPEG-PS
Размер файла : 1024 Мбайт
Продолжительность : 3 м. 42 с.
Общий поток : 38,7 Мбит/сек
Видео
Идентификатор : 224 (0xE0)
Формат : MPEG Video
Версия формата : Version 2
Профиль формата : [email protected]
Параметр BVOP формата : Да
Параметр матрицы формата : По умолчанию
Продолжительность : 3 м. 41 с.
Вид битрейта : Переменный
Битрейт : 37,8 Мбит/сек
Максимальный битрейт : 9200 Кбит/сек
Ширина : 720 пикселей
Высота : 576 пикселей
Соотношение сторон : 16:9
Частота кадров : 25,000 кадров/сек
Стандарт вещания : PAL
Цветовое пространство : YUV
Субдискретизация насыщенности : 4:2:0
Битовая глубина : 8 бит
Тип развёртки : Прогрессивная
Метод сжатия : С потерями
Бит/(Пиксели*Кадры) : 3.648
Размер потока : 999 Мбайт (98%)
Аудио
Идентификатор : 189 (0xBD)-128 (0x80)
Формат : AC-3
Формат/Информация : Audio Coding 3
Расширение режима : CM (complete main)
Режим смешивания : DVD-Video
Продолжительность : 3 м. 42 с.
Вид битрейта : Постоянный
Битрейт : 96,0 Кбит/сек
Каналы : 2 канала
Расположение каналов : Front: L R
Частота : 48,0 КГц
Битовая глубина : 16 бит
Метод сжатия : С потерями
Задержка видео : -512 мс.
Размер потока : 2,54 Мбайт (0%)
Меню
Общее
Полное имя : E:\Погоня за тенью 3xDVD9\DVD2\VIDEO_TS\VTS_01_6.VOB
Формат : MPEG-PS
Размер файла : 1024 Мбайт
Продолжительность : 4 м. 25 с.
Общий поток : 32,4 Мбит/сек
Видео
Идентификатор : 224 (0xE0)
Формат : MPEG Video
Версия формата : Version 2
Профиль формата : [email protected]
Параметр BVOP формата : Да
Параметр матрицы формата : По умолчанию
Параметр GOP формата : M=3, N=12
Продолжительность : 4 м. 25 с.
Вид битрейта : Переменный
Битрейт : 31,7 Мбит/сек
Максимальный битрейт : 9200 Кбит/сек
Ширина : 720 пикселей
Высота : 576 пикселей
Соотношение сторон : 16:9
Частота кадров : 25,000 кадров/сек
Стандарт вещания : PAL
Цветовое пространство : YUV
Субдискретизация насыщенности : 4:2:0
Битовая глубина : 8 бит
Тип развёртки : Прогрессивная
Метод сжатия : С потерями
Бит/(Пиксели*Кадры) : 3.054
Размер потока : 1001 Мбайт (98%)
Аудио
Идентификатор : 189 (0xBD)-128 (0x80)
Формат : AC-3
Формат/Информация : Audio Coding 3
Расширение режима : CM (complete main)
Режим смешивания : DVD-Video
Продолжительность : 4 м. 25 с.
Вид битрейта : Постоянный
Битрейт : 96,0 Кбит/сек
Каналы : 2 канала
Расположение каналов : Front: L R
Частота : 48,0 КГц
Битовая глубина : 16 бит
Метод сжатия : С потерями
Задержка видео : -192 мс.
Размер потока : 3,03 Мбайт (0%)
Меню
Общее
Полное имя : E:\Погоня за тенью 3xDVD9\DVD2\VIDEO_TS\VTS_01_7.VOB
Формат : MPEG-PS
Размер файла : 1024 Мбайт
Продолжительность : 6 м. 29 с.
Общий поток : 22,0 Мбит/сек
Видео
Идентификатор : 224 (0xE0)
Формат : MPEG Video
Версия формата : Version 2
Профиль формата : [email protected]
Параметр BVOP формата : Да
Параметр матрицы формата : По умолчанию
Параметр GOP формата : M=3, N=12
Продолжительность : 6 м. 29 с.
Вид битрейта : Переменный
Битрейт : 21,5 Мбит/сек
Максимальный битрейт : 9200 Кбит/сек
Ширина : 720 пикселей
Высота : 576 пикселей
Соотношение сторон : 16:9
Частота кадров : 25,000 кадров/сек
Стандарт вещания : PAL
Цветовое пространство : YUV
Субдискретизация насыщенности : 4:2:0
Битовая глубина : 8 бит
Тип развёртки : Прогрессивная
Метод сжатия : С потерями
Бит/(Пиксели*Кадры) : 2.074
Размер потока : 998 Мбайт (98%)
Аудио
Идентификатор : 189 (0xBD)-128 (0x80)
Формат : AC-3
Формат/Информация : Audio Coding 3
Расширение режима : CM (complete main)
Режим смешивания : DVD-Video
Продолжительность : 6 м. 29 с.
Вид битрейта : Постоянный
Битрейт : 96,0 Кбит/сек
Каналы : 2 канала
Расположение каналов : Front: L R
Частота : 48,0 КГц
Битовая глубина : 16 бит
Метод сжатия : С потерями
Задержка видео : -632 мс.
Размер потока : 4,46 Мбайт (0%)
Меню
Общее
Полное имя : E:\Погоня за тенью 3xDVD9\DVD2\VIDEO_TS\VTS_01_8.VOB
Формат : MPEG-PS
Размер файла : 222 Мбайт
Продолжительность : 12 м.
Общий поток : 2414 Кбит/сек
Видео
Идентификатор : 224 (0xE0)
Формат : MPEG Video
Версия формата : Version 2
Профиль формата : [email protected]
Параметр BVOP формата : Да
Параметр матрицы формата : По умолчанию
Параметр GOP формата : M=3, N=12
Продолжительность : 12 м.
Вид битрейта : Переменный
Битрейт : 2270 Кбит/сек
Максимальный битрейт : 9200 Кбит/сек
Ширина : 720 пикселей
Высота : 576 пикселей
Соотношение сторон : 16:9
Частота кадров : 25,000 кадров/сек
Стандарт вещания : PAL
Цветовое пространство : YUV
Субдискретизация насыщенности : 4:2:0
Битовая глубина : 8 бит
Тип развёртки : Прогрессивная
Метод сжатия : С потерями
Бит/(Пиксели*Кадры) : 0.219
Размер потока : 209 Мбайт (94%)
Аудио
Идентификатор : 189 (0xBD)-128 (0x80)
Формат : AC-3
Формат/Информация : Audio Coding 3
Расширение режима : CM (complete main)
Режим смешивания : DVD-Video
Продолжительность : 12 м.
Вид битрейта : Постоянный
Битрейт : 96,0 Кбит/сек
Каналы : 2 канала
Расположение каналов : Front: L R
Частота : 48,0 КГц
Битовая глубина : 16 бит
Метод сжатия : С потерями
Задержка видео : -512 мс.
Размер потока : 8,85 Мбайт (4%)
Меню
Общее
Полное имя : E:\Погоня за тенью 3xDVD9\DVD2\VIDEO_TS\VTS_02_0.BUP
Формат : DVD Video
Профиль формата : Program
Размер файла : 14,0 Кбайт
Продолжительность : 22 с.
Общий поток : 5194 бит/сек
Видео
Идентификатор : 224 (0xE0)
Формат : MPEG Video
Версия формата : Version 2
Продолжительность : 22 с.
Вид битрейта : Переменный
Ширина : 720 пикселей
Высота : 576 пикселей
Соотношение сторон : 4:3
Частота кадров : 25,000 кадров/сек
Стандарт вещания : PAL
Метод сжатия : С потерями
Аудио
Идентификатор : 128 (0x80)
Формат : AC-3
Формат/Информация : Audio Coding 3
Продолжительность : 22 с.
Каналы : 2 канала
Частота : 48,0 КГц
Метод сжатия : С потерями
Язык : Russian
Меню
Продолжительность : 22 с.
00:00:00.000 : Chapter 1
List (Audio) : 0
Общее
Полное имя : E:\Погоня за тенью 3xDVD9\DVD2\VIDEO_TS\VTS_02_0.IFO
Формат : DVD Video
Профиль формата : Program
Размер файла : 14,0 Кбайт
Продолжительность : 22 с.
Общий поток : 5194 бит/сек
Видео
Идентификатор : 224 (0xE0)
Формат : MPEG Video
Версия формата : Version 2
Продолжительность : 22 с.
Вид битрейта : Переменный
Ширина : 720 пикселей
Высота : 576 пикселей
Соотношение сторон : 4:3
Частота кадров : 25,000 кадров/сек
Стандарт вещания : PAL
Метод сжатия : С потерями
Аудио
Идентификатор : 128 (0x80)
Формат : AC-3
Формат/Информация : Audio Coding 3
Продолжительность : 22 с.
Каналы : 2 канала
Частота : 48,0 КГц
Метод сжатия : С потерями
Язык : Russian
Меню
Продолжительность : 22 с.
00:00:00.000 : Chapter 1
List (Audio) : 0
Общее
Полное имя : E:\Погоня за тенью 3xDVD9\DVD2\VIDEO_TS\VTS_02_1.VOB
Формат : MPEG-PS
Размер файла : 20,2 Мбайт
Продолжительность : 22 с.
Общий поток : 7675 Кбит/сек
Видео
Идентификатор : 224 (0xE0)
Формат : MPEG Video
Версия формата : Version 2
Профиль формата : [email protected]
Параметр BVOP формата : Да
Параметр матрицы формата : По умолчанию
Параметр GOP формата : M=3, N=12
Продолжительность : 22 с.
Вид битрейта : Переменный
Битрейт : 7330 Кбит/сек
Максимальный битрейт : 9000 Кбит/сек
Ширина : 720 пикселей
Высота : 576 пикселей
Соотношение сторон : 4:3
Частота кадров : 25,000 кадров/сек
Стандарт вещания : PAL
Цветовое пространство : YUV
Субдискретизация насыщенности : 4:2:0
Битовая глубина : 8 бит
Тип развёртки : Чересстрочная
Порядок развёртки : Нижнее поле первое
Метод сжатия : С потерями
Бит/(Пиксели*Кадры) : 0.707
Размер потока : 19,2 Мбайт (95%)
Аудио
Идентификатор : 189 (0xBD)-128 (0x80)
Формат : AC-3
Формат/Информация : Audio Coding 3
Расширение режима : CM (complete main)
Режим смешивания : DVD-Video
Продолжительность : 22 с.
Вид битрейта : Постоянный
Битрейт : 192 Кбит/сек
Каналы : 2 канала
Расположение каналов : Front: L R
Частота : 48,0 КГц
Битовая глубина : 16 бит
Метод сжатия : С потерями
Задержка видео : -80 мс.
Размер потока : 518 Кбайт (3%)
Меню
Общее
Полное имя : E:\Погоня за тенью 3xDVD9\DVD2\VIDEO_TS\VTS_03_0.BUP
Формат : DVD Video
Профиль формата : Program
Размер файла : 14,0 Кбайт
Продолжительность : 16 с.
Общий поток : 6976 бит/сек
Видео
Идентификатор : 224 (0xE0)
Формат : MPEG Video
Версия формата : Version 2
Продолжительность : 16 с.
Вид битрейта : Переменный
Ширина : 720 пикселей
Высота : 576 пикселей
Соотношение сторон : 16:9
Частота кадров : 25,000 кадров/сек
Стандарт вещания : PAL
Метод сжатия : С потерями
Аудио
Идентификатор : 128 (0x80)
Формат : AC-3
Формат/Информация : Audio Coding 3
Продолжительность : 16 с.
Каналы : 2 канала
Частота : 48,0 КГц
Метод сжатия : С потерями
Язык : Russian
Меню
Продолжительность : 16 с.
00:00:00.000 : Chapter 1
List (Audio) : 0
Общее
Полное имя : E:\Погоня за тенью 3xDVD9\DVD2\VIDEO_TS\VTS_03_0.IFO
Формат : DVD Video
Профиль формата : Program
Размер файла : 14,0 Кбайт
Продолжительность : 16 с.
Общий поток : 6976 бит/сек
Видео
Идентификатор : 224 (0xE0)
Формат : MPEG Video
Версия формата : Version 2
Продолжительность : 16 с.
Вид битрейта : Переменный
Ширина : 720 пикселей
Высота : 576 пикселей
Соотношение сторон : 16:9
Частота кадров : 25,000 кадров/сек
Стандарт вещания : PAL
Метод сжатия : С потерями
Аудио
Идентификатор : 128 (0x80)
Формат : AC-3
Формат/Информация : Audio Coding 3
Продолжительность : 16 с.
Каналы : 2 канала
Частота : 48,0 КГц
Метод сжатия : С потерями
Язык : Russian
Меню
Продолжительность : 16 с.
00:00:00.000 : Chapter 1
List (Audio) : 0
Общее
Полное имя : E:\Погоня за тенью 3xDVD9\DVD2\VIDEO_TS\VTS_03_1.VOB
Формат : MPEG-PS
Размер файла : 4,83 Мбайт
Продолжительность : 16 с.
Общий поток : 2466 Кбит/сек
Видео
Идентификатор : 224 (0xE0)
Формат : MPEG Video
Версия формата : Version 2
Профиль формата : [email protected]
Параметр BVOP формата : Да
Параметр матрицы формата : По умолчанию
Продолжительность : 16 с.
Вид битрейта : Переменный
Битрейт : 2225 Кбит/сек
Максимальный битрейт : 9200 Кбит/сек
Ширина : 720 пикселей
Высота : 576 пикселей
Соотношение сторон : 16:9
Частота кадров : 25,000 кадров/сек
Стандарт вещания : PAL
Цветовое пространство : YUV
Субдискретизация насыщенности : 4:2:0
Битовая глубина : 8 бит
Тип развёртки : Прогрессивная
Метод сжатия : С потерями
Бит/(Пиксели*Кадры) : 0.215
Размер потока : 4,36 Мбайт (90%)
Аудио
Идентификатор : 189 (0xBD)-128 (0x80)
Формат : AC-3
Формат/Информация : Audio Coding 3
Расширение режима : CM (complete main)
Режим смешивания : DVD-Video
Продолжительность : 16 с.
Вид битрейта : Постоянный
Битрейт : 192 Кбит/сек
Каналы : 2 канала
Расположение каналов : Front: L R
Частота : 48,0 КГц
Битовая глубина : 16 бит
Метод сжатия : С потерями
Размер потока : 383 Кбайт (8%)
Меню

DVDInfo DVD1

Title: Pogonya za tenyu DVD1
Size: 7.36 Gb ( 7 716 232 KBytes ) - DVD-9
Enabled regions: 1, 2, 3, 4, 5, 6, 7, 8
VTS_01 :
Play Length: 00:46:55+00:48:51+00:49:10+00:48:23+00:48:17+00:48:10+00:48:50+00:48:33
Video: PAL 16:9 (720x576) VBR, Auto Letterboxed
Audio:
Russian (Dolby AC3, 2 ch)
VTS_02 :
Play Length: 00:00:22
Video: PAL 4:3 (720x576) VBR
Audio:
Russian (Dolby AC3, 2 ch)
VTS_03 :
Play Length: 00:00:16
Video: PAL 16:9 (720x576) VBR, Auto Letterboxed
Audio:
Russian (Dolby AC3, 2 ch)
Menu Video:
PAL 4:3 (720x576) VBR
Menu English Language Unit :
Root Menu

DVDInfo DVD2

Title: Pogonya za tenyu DVD2
Size: 7.26 Gb ( 7 614 564 KBytes ) - DVD-9
Enabled regions: 1, 2, 3, 4, 5, 6, 7, 8
VTS_01 :
Play Length: 00:47:06+00:48:51+00:46:54+00:48:56+00:49:01+00:48:45+00:47:27
Video: PAL 16:9 (720x576) VBR, Auto Letterboxed
Audio:
Russian (Dolby AC3, 2 ch)
VTS_02 :
Play Length: 00:00:22
Video: PAL 4:3 (720x576) VBR
Audio:
Russian (Dolby AC3, 2 ch)
VTS_03 :
Play Length: 00:00:16
Video: PAL 16:9 (720x576) VBR, Auto Letterboxed
Audio:
Russian (Dolby AC3, 2 ch)
Menu Video:
PAL 4:3 (720x576) VBR
Menu English Language Unit :
Root Menu
Subpicture Menu
Audio Menu

DVDInfo DVD3

Title: Pogonya za tenyu DVD3
Size: 7.35 Gb ( 7 708 862 KBytes ) - DVD-9
Enabled regions: 1, 2, 3, 4, 5, 6, 7, 8
VTS_01 :
Play Length: 00:48:43+00:49:00+00:49:02+00:48:55+00:48:53+00:48:39+00:49:09+00:48:20
Video: PAL 16:9 (720x576) VBR, Auto Letterboxed
Audio:
Russian (Dolby AC3, 2 ch)
VTS_02 :
Play Length: 00:00:22
Video: PAL 4:3 (720x576) VBR
Audio:
Russian (Dolby AC3, 2 ch)
VTS_03 :
Play Length: 00:00:16
Video: PAL 16:9 (720x576) VBR, Auto Letterboxed
Audio:
Russian (Dolby AC3, 2 ch)
Menu Video:
PAL 4:3 (720x576) VBR
Menu English Language Unit :
Root Menu

Меню диска

     
--          

_________________


Last edited by nsa1977 on 2011-08-19 19:45; edited 1 time in total
Other forum [Profile] [PM]
Display posts from previous:    
Reply to topic

The time now is: Today 18:14

All times are GMT + 3 Hours



You cannot post new topics in this forum
You cannot reply to topics in this forum
You cannot edit your posts in this forum
You cannot delete your posts in this forum
You cannot vote in polls in this forum
You cannot attach files in this forum
You cannot download files in this forum