Today is a free download without charge Download

Газонокосильщик / The Lawnmower Man (Бретт Леонард) (Фантастика, Ужасы, 1992) DVD5

Reply to topic
 
Author
Message

Omen ®

Longevity: 7 years

Posts: 181090

Торрент-статистика

Post 19-Aug-2011 16:24

[Quote]

Газонокосильщик
The Lawnmower Man
-
Русское название: Газонокосильщик
Оригинальное название: The Lawnmower Man
Год выпуска: 1992
Производство: США, Япония, Великобритания
Жанр: Фантастика, Ужасы
-Описание фильма:
Джоуб Смит, газонокосильщик, вроде бы недоразвитый парень с умом и поведением ребёнка, становится объектом опытов учёного Лоренса Анджело, который, стимулируя мозговую деятельность подопытного, помогает ему проникнуть в виртуальную реальность, компьютерный мир, выглядящий подлиннее, чем настоящий. Придурок превращается в суперчеловека, более того — в Кибер-Бога, но из-за вмешательства военной секретной корпорации в нём пробуждается агрессивное начало, способное привести уже Кибер-Дьявола к злой власти надо всем миром.-Режиссер: Бретт Леонард
Актеры: Дженни Райт, Джефф Фэйи, Марк Бринглсон, Коллин Коффи, Джим Лэндис, Джеффри Льюис, Трой Эванс, Пирс Броснан, Джереми Слэйт, Дин Норрис
-Продолжительность: 01:47:52
Перевод: Многоголосый закадровый
Субтитры: Отсутствуют
Бонусы: Отсутствуют
- -Сэмпл: Скачать-Дата мировой премьеры: 6 марта 1992
Дата выхода DVD релиза: 11 марта 2010
-Видеокодек: MPEG-2
Битрейт видео: ~4793 Кбит/сек
Размер кадра: PAL 4:3 (720x576)
Качество видео: DVD5 [R5]
Audio: AC-3, 256 Кбит/сек, 6 каналов, 48,0 КГц - Русский
-

MediaInfo

Общее
Полное имя : VTS_03_1.VOB
Формат : MPEG-PS
Размер файла : 1024 Мбайт
Продолжительность : 27 м.
Общий поток : 5151 Кбит/сек
Видео
Идентификатор : 224 (0xE0)
Формат : MPEG Video
Версия формата : Version 2
Профиль формата : [email protected]
Параметр BVOP формата : Да
Параметр матрицы формата : Выборочная
Продолжительность : 27 м.
Вид битрейта : Переменный
Битрейт : 4793 Кбит/сек
Максимальный битрейт : 9000 Кбит/сек
Ширина : 720 пикс.
Высота : 576 пикс.
Соотношение сторон : 4:3
Частота кадров : 25,000 кадр/сек
Стандарт вещания : PAL
Цветовое пространство : YUV
Подвыборка цветности : 4:2:0
Битовая глубина : 8 бит
Тип развёртки : Чересстрочная
Порядок развёртки : Верхнее поле первое
Метод сжатия : С потерями
Бит/(Пиксели*Кадры) : 0.462
Размер потока : 953 Мбайт (93%)
Аудио
Идентификатор : 189 (0xBD)-128 (0x80)
Формат : AC-3
Формат/Информация : Audio Coding 3
Расширение режима : CM (complete main)
Режим смешивания : DVD-Video
Продолжительность : 27 м.
Вид битрейта : Постоянный
Битрейт : 256 Кбит/сек
Каналы : 6 каналов
Расположение каналов : Front: L C R, Side: L R, LFE
Частота : 48,0 КГц
Битовая глубина : 16 бит
Метод сжатия : С потерями
Размер потока : 50,9 Мбайт (5%)
-

DVDInfo

Title:
Size: 4.03 Gb ( 4 228 122,00 KBytes ) - DVD-5
Enabled regions: 5
VTS_01 :
Play Length: 00:00:10
Video: PAL 4:3 (720x576) VBR
VTS_02 :
Play Length: 00:00:10
Video: PAL 4:3 (720x576) VBR
Audio:
Not specified (Dolby AC3, 2 ch)
VTS_03 :
Play Length: 01:47:52
Video: PAL 4:3 (720x576) VBR
Audio:
Not specified (Dolby AC3, 6 ch)
* Menus Information *
VIDEO_TS Menu
Video:
PAL 4:3 (720x576) VBR
English Language Unit :
Title Menu
VTS_01 Menu
Video:
PAL 4:3 (720x576) VBR
Audio:
Not specified (LinearPCM, 2 ch)
English Language Unit :
Root Menu
VTS_02 Menu
Video:
PAL 4:3 (720x576) VBR
English Language Unit :
Root Menu
VTS_03 Menu
Video:
PAL 4:3 (720x576) VBR
English Language Unit :
Root Menu
-

DVD меню

-Скриншоты:
           


Last edited by Omen on 2011-08-19 17:47; edited 2 times in total
Other forum [Profile] [PM]
Display posts from previous:    
Reply to topic

The time now is: Today 18:50

All times are GMT + 3 Hours



You cannot post new topics in this forum
You cannot reply to topics in this forum
You cannot edit your posts in this forum
You cannot delete your posts in this forum
You cannot vote in polls in this forum
You cannot attach files in this forum
You cannot download files in this forum