Today is a free download without charge Download

Газонокосильщик 2: За пределами киберпространства / Lawnmower Man 2: Beyond Cyberspace (1996) DVD5

Reply to topic
 
Author
Message

Omen ®

Longevity: 7 years

Posts: 181090

Торрент-статистика

Post 19-Aug-2011 16:08

[Quote]

Газонокосильщик 2: За пределами киберпространства
Lawnmower Man 2: Beyond Cyberspace
-
Русское название: Газонокосильщик 2: За пределами киберпространства
Оригинальное название: Lawnmower Man 2: Beyond Cyberspace
Год выпуска: 1996
Производство: США
Жанр: Фантастика, Боевик, Триллер
-Описание фильма:
Косильщик лужаек Джоуб не погиб в пламени, а стал обитателем виртуальной реальности и приступил к работе над созданием новой компьютерной системы — глобальной сети, связывающей все компьютеры так, чтобы было невозможно из нее высвободиться. Безумный Джоуб пытается воссоздать открытие своего «создателя», ученого Бенджамина Трэйса — универсальный компьютерный чип.
Когда Трэйс узнает, что Джоуб при помощи нового микрочипа виртуальной реальности пытается обрести господство над всем миром, ученый приходит к выводу, что только он может расстроить мегаманиакальные планы Джоуба…
-Режиссер: Фархад Мэнн
Актеры: Пэтрик Берджин, Мэтт Фрюэр, Илай Пуже, Остин О'Брайен, Камилла Купер
-Продолжительность: 01:29:21
Перевод: Многоголосый закадровый
Субтитры: Отсутствуют
Бонусы: Отсутствуют
- -Сэмпл: Скачать-Дата мировой премьеры: 12 января 1996
Дата выхода DVD релиза: 18 марта 2010
-Видеокодек: MPEG-2
Битрейт видео: ~5114 Кбит/сек
Размер кадра: PAL 4:3 (720x576)
Качество видео: DVD5
Audio: AC-3, 224 Кбит/сек, 6 каналов, 48,0 КГц - Русский
-

MediaInfo

Общее
Полное имя : VTS_03_2.VOB
Формат : MPEG-PS
Размер файла : 1024 Мбайт
Продолжительность : 26 м.
Общий поток : 5446 Кбит/сек
Видео
Идентификатор : 224 (0xE0)
Формат : MPEG Video
Версия формата : Version 2
Профиль формата : [email protected]
Параметр BVOP формата : Да
Параметр матрицы формата : Выборочная
Параметры GOP формата : M=3, N=15
Продолжительность : 26 м.
Вид битрейта : Переменный
Битрейт : 5114 Кбит/сек
Максимальный битрейт : 9100 Кбит/сек
Ширина : 720 пикс.
Высота : 576 пикс.
Соотношение сторон : 4:3
Частота кадров : 25,000 кадр/сек
Стандарт вещания : PAL
Цветовое пространство : YUV
Подвыборка цветности : 4:2:0
Битовая глубина : 8 бит
Тип развёртки : Чересстрочная
Порядок развёртки : Верхнее поле первое
Метод сжатия : С потерями
Бит/(Пиксели*Кадры) : 0.493
Размер потока : 961 Мбайт (94%)
Аудио
Идентификатор : 189 (0xBD)-128 (0x80)
Формат : AC-3
Формат/Информация : Audio Coding 3
Расширение режима : CM (complete main)
Режим смешивания : DVD-Video
Продолжительность : 26 м.
Вид битрейта : Постоянный
Битрейт : 224 Кбит/сек
Каналы : 6 каналов
Расположение каналов : Front: L C R, Side: L R, LFE
Частота : 48,0 КГц
Битовая глубина : 16 бит
Метод сжатия : С потерями
Задержка видео : -848 мс.
Размер потока : 42,1 Мбайт (4%)
-

DVDInfo

Title:
Size: 3.53 Gb ( 3 706 320,00 KBytes ) - DVD-5
Enabled regions: 5
VTS_01 :
Play Length: 00:00:10
Video: PAL 4:3 (720x576) VBR
VTS_02 :
Play Length: 00:00:10
Video: PAL 4:3 (720x576) VBR
Audio:
Not specified (Dolby AC3, 2 ch)
VTS_03 :
Play Length: 01:29:21
Video: PAL 4:3 (720x576) VBR
Audio:
Not specified (Dolby AC3, 6 ch)
* Menus Information *
VIDEO_TS Menu
Video:
PAL 4:3 (720x576) VBR
English Language Unit :
Title Menu
VTS_01 Menu
Video:
PAL 4:3 (720x576) VBR
Audio:
Not specified (LinearPCM, 2 ch)
English Language Unit :
Root Menu
VTS_02 Menu
Video:
PAL 4:3 (720x576) VBR
English Language Unit :
Root Menu
VTS_03 Menu
Video:
PAL 4:3 (720x576) VBR
English Language Unit :
Root Menu
-

DVD меню

-Скриншоты:
         


Last edited by Omen on 2011-08-19 17:27; edited 2 times in total
Other forum [Profile] [PM]
Display posts from previous:    
Reply to topic

The time now is: Today 21:17

All times are GMT + 3 Hours



You cannot post new topics in this forum
You cannot reply to topics in this forum
You cannot edit your posts in this forum
You cannot delete your posts in this forum
You cannot vote in polls in this forum
You cannot attach files in this forum
You cannot download files in this forum