Today is a free download without charge Download

Невероятные приключения Супер Дэйва / The Extreme Adventures of Super Dave (Питер МакДональд) [2000 г., комедия, HDTVRip-AVC] [720p]

Reply to topic
 
Author
Message

Jurchic ®

Longevity: 9 years

Posts: 42

Location: такое любопытство

Торрент-статистика

Post 14-Jun-2013 17:59

[Quote]

Невероятные приключения Супер Дэйва / The Extreme Adventures of Super Dave
Год выпуска: 2000
Страна: США | Metro-Goldwyn-Mayer (MGM)
Жанр: комедия
Продолжительность: 01:27:20
Перевод: Профессиональный (двухголосый закадровый НТВ+)
Режиссер: Питер МакДональд
Продюссер: Ларри Брэзнер, Лорн Кэмерон, Дэвид Хоселтон
Сценарий: Боб Эйнштейн, Лорн Кэмерон, Дэвид Хоселтон
Бюджет: $15 000 000
Премьера в мире: 11 января 2000

- рекомендуется присутствие родителей
В ролях: Боб Эйнштейн, Дэн Хедайя, Джиа Каридес, Дон Лейк, Art Irizawa, Бретт Миллер, Майк Уолден, Карл Майкл Линднер, Стив Ван Уормер, Рэй Чарльз ...-Описание: Потеряв все свои сбережения, преданный собственным менеджером, разоренный и уже практически сломленный, Супер Дэйв находит силы противостоять жестокому натиску судьбы. А причина такого подъема духа — в его новой знакомой, очаровательной одинокой маме и ее больном сынишке Тимми.
Узнав, что Тимми нужна дорогостоящая операция, Дэйв решается на еще один — возможно, самый опасный — трюк. Он должен еще раз доказать всему миру, что он не только самый бесстрашный, но и самый высокоаварийный каскадер!-Качество: HDTVRip-AVC [720p]
Формат: MKV
Видео кодек: MPEG-4 AVC/H.264
Аудио кодек: AC3
Видео: 1280*720 (16:9), MPEG-4 AVC/H.264 ~3550 Kbps, 25.000 fps, 0.154 bits/pixe
Audio #1: AC3 2.0 (L R), ~192 kbps, 48.0 KHz, 16 bits, русский
Audio #2: AC3 2.0 (L R), ~192 kbps, 48.0 KHz, 16 bits, английский
Релиз от: MediaClub

MediaInfo:

Код:
General
Unique ID                                : 223791400499226824015490163778813393416 (0xA85CA7EC74BA633FAB1DEC21D9CB7A08)
Complete name                            : :\\Neverojatnye.prikljuchenija.super.dejva.2000.HDTVRip.720p.mkv
Format                                   : Matroska
Format version                           : Version 2
File size                                : 2.40 GiB
Duration                                 : 1h 27mn
Overall bit rate                         : 3 934 Kbps
Encoded date                             : UTC 2013-06-13 17:54:02
Writing application                      : mkvmerge v5.4.0 ('Piper') built on Mar 10 2012 13:34:39
Writing library                          : libebml v1.2.3 + libmatroska v1.3.0
Video
ID                                       : 1
Format                                   : AVC
Format/Info                              : Advanced Video Codec
Format profile                           : [email protected]
Format settings, CABAC                   : Yes
Format settings, ReFrames                : 9 frames
Codec ID                                 : V_MPEG4/ISO/AVC
Duration                                 : 1h 27mn
Bit rate                                 : 3 550 Kbps
Width                                    : 1 280 pixels
Height                                   : 720 pixels
Display aspect ratio                     : 16:9
Frame rate mode                          : Constant
Frame rate                               : 25.000 fps
Color space                              : YUV
Chroma subsampling                       : 4:2:0
Bit depth                                : 8 bits
Scan type                                : Progressive
Bits/(Pixel*Frame)                       : 0.154
Stream size                              : 2.12 GiB (88%)
Writing library                          : x264 core 125 r2208 d9d2288
Encoding settings                        : cabac=1 / ref=9 / deblock=1:-2:-2 / analyse=0x3:0x133 / me=umh / subme=10 / psy=1 / psy_rd=1.00:0.00 / mixed_ref=1 / me_range=32 / chroma_me=1 / trellis=2 / 8x8dct=1 / cqm=0 / deadzone=21,11 / fast_pskip=0 / chroma_qp_offset=-2 / threads=6 / lookahead_threads=1 / sliced_threads=0 / nr=0 / decimate=0 / interlaced=0 / bluray_compat=0 / constrained_intra=0 / bframes=8 / b_pyramid=2 / b_adapt=2 / b_bias=0 / direct=3 / weightb=1 / open_gop=0 / weightp=2 / keyint=250 / keyint_min=25 / scenecut=40 / intra_refresh=0 / rc=2pass / mbtree=0 / bitrate=3550 / ratetol=1.0 / qcomp=0.60 / qpmin=0 / qpmax=69 / qpstep=4 / cplxblur=20.0 / qblur=0.5 / ip_ratio=1.40 / pb_ratio=1.30 / aq=1:0.80
Language                                 : English
Default                                  : Yes
Forced                                   : No
Audio #1
ID                                       : 2
Format                                   : AC-3
Format/Info                              : Audio Coding 3
Mode extension                           : CM (complete main)
Format settings, Endianness              : Big
Codec ID                                 : A_AC3
Duration                                 : 1h 27mn
Bit rate mode                            : Constant
Bit rate                                 : 192 Kbps
Channel(s)                               : 2 channels
Channel positions                        : Front: L R
Sampling rate                            : 48.0 KHz
Bit depth                                : 16 bits
Compression mode                         : Lossy
Stream size                              : 120 MiB (5%)
Language                                 : Russian
Default                                  : Yes
Forced                                   : No
Audio #2
ID                                       : 3
Format                                   : AC-3
Format/Info                              : Audio Coding 3
Mode extension                           : CM (complete main)
Format settings, Endianness              : Big
Codec ID                                 : A_AC3
Duration                                 : 1h 27mn
Bit rate mode                            : Constant
Bit rate                                 : 192 Kbps
Channel(s)                               : 2 channels
Channel positions                        : Front: L R
Sampling rate                            : 48.0 KHz
Bit depth                                : 16 bits
Compression mode                         : Lossy
Stream size                              : 120 MiB (5%)
Language                                 : English
Default                                  : No
Forced                                   : No

Скриншоты:

       
Other forum [Profile] [PM]
Display posts from previous:    
Reply to topic

The time now is: Today 13:46

All times are GMT + 3 Hours



You cannot post new topics in this forum
You cannot reply to topics in this forum
You cannot edit your posts in this forum
You cannot delete your posts in this forum
You cannot vote in polls in this forum
You cannot attach files in this forum
You cannot download files in this forum