Today is a free download without charge Download

А теперь не смотри / Don't Look Now (Николас Роуг) [1973 г., ужасы, триллер, драма, детектив, BDRip720p]

Reply to topic
 
Author
Message

Delia ®

Gender:

Longevity: 9 years 6 months

Posts: 1821

Торрент-статистика

Post 19-Aug-2011 09:58

[Quote]

А теперь не смотриDon't Look Now Год выпуска: 1973
Страна: Великобритания, Италия
Жанр: ужасы, триллер, драма, детектив
Продолжительность: 01:50:11
Перевод: Профессиональный (двухголосый)
Режиссер: Николас Роуг
Продюссер: Питер Кац, Фредерик Мюллер, Энтони Б. Унгер
Сценарий: Дафна Дю Морье, Аллан Скотт, Крис Брайант
Бюджет:$1 500 000
Премьера в мире: 9 декабря 1973
В ролях: Джули Кристи, Дональд Сазерленд, Хилари Мейсон, Клелия Матания, Массимо Серато, Ренато Скарпа, Джорджо Трестини, Леопольдо Триесте, Дэвид Три, Энн Рай
Описание:Экранизация одной из самых поздних новелл Дафны Дюморье, изданной в 1971 году. Мощный психологический триллер в духе сэра Альфреда Хичкока, где сошлись воедино английский интеллектуальный киностиль триллера и итальянские мотивы ужастика в стиле «джалло».
У британской четы Бакстеров в пруду тонет любимая дочь Кристина. Чтобы прийти в себя от выпавшей на их долю трагедии, супруги отправляются в Венецию. Джон подрядился помогать в реставрации местной церкви.
Бакстеры знакомятся с двумя странными сестрами, одна из которых совершенно слепая, но утверждает, что вступила в контакт с духом ребенка. Сёстры предупреждают, что жизнь английской пары в Венеции в опасности. Странные видения преследуют Лору и Джона — им мерещится ребенок в красном плаще, именно в такой одежде погибла их юная дочь.
Аура в городе теней и в самом деле малопригодная для того, чтобы забыть о горе: то плавающие в каналах трупы, то страшные лица гондольеров и иных венецианцев.
Финал закономерен для жанра. Не верующий в страшилки Джон станет жертвой карлицы, хотя как считают многие критики, на самом деле его убивает мрачная Венеция.
Качество: BDRip
Формат: MKV
Видео кодек: H.264
Аудио кодек: AC3
Видео: English, 5168 Кбит/сек, 1280*688 (1,860), в 24,000 кадр/сек, AVC ([email protected])
Аудио: Russian, 192 Кбит/сек, 48,0 КГц, 16 бит, 2 канала(ов), AC-3 | (CP)
Аудио:English, 320 Кбит/сек, 48,0 КГц, 16 бит, 2 канала(ов), AC-3 | оригинал
Дополнительно отдельными файлами :
Профессиональный двухголосый (Эльром)
Авторский одноголосый (Юрий Сербин)
Авторский одноголосый (Алексей Михалев)
Авторский одноголосый (Владислав «Лектор» Огородников)
Субтитры:Russian, UTF-8

Знаете ли вы, что...

* Дональд Сазерленд и Джули Кристи сымпровизировали большинство совместных сцен.
* «Постельную» сцену между Джоном и Лаурой режиссер решил добавить в самый последний момент. По мнению Роуга, в противном случае могло возникнуть впечатление, будто супруги только и делают, что ругаются.
* Итальянский актер Ренато Скарпо, сыгравший зловещего испектора Лоньи, не говорил на английском языке. Он просто произнес те фразы, которые были для него написаны, не имея никакого представления, что они значат.
* Роуг для придания убедительности игры актёров в отдельных сценах их попросту провоцировал. Сазерленд пытался отыграть эпизод в церкви без дублёров, и был наивно убеждён, что ему протягивают шест для поддержки. Но режиссер Роуг вместо помощи, оттолкнул шест подальше от строительных лесов, где актёра страховали ассистенты.
* Писательница Дюморье, редко признававшая удачи экранизаций своих произведений, одобрила фильм, высказав впрочем досаду, что не во всех картинах по ее книгам смогла сыграть Джули Кристи.
* Найти композитора к фильму помог итальянский продюсер Уго Мариатти, давний приятель Роуга. В то время малоизвестный, но, подающий надежды 32-летний композитор из Венеции Паоло Донаджо был временно не у дел, и охотно согласился помочь в создании триллера. Музыка, по замыслу режиссёра, должна была стать одним из ключевых художественных средств этой картины. Донаджо известен своим хитом «You Don't Have To Say You Love Me») и работами в кино с Тинто Брассом. После выхода в свет картины Роуга на венецианца обратил внимание другой мастер триллеров — Брайан Де Пальма, пригласив того для совместной работы в фильме «Кэрри».
* В оригинальном рассказе писательницы Дюморье супруги Бакстер знакомятся с сестрами-близнецами, но найти актрис-близнецов в таком возрасте не удалось.

MI:

Общее
Уникальный идентификатор : 213571615627236979126751129154506037538 (0xA0AC65A0880DA98AA7B1F9B5A7DD9922)
Полное имя : F:\торрент\A.Teper.Ne.Smotri.1973.x264.BDRip720p\A.Teper.Ne.Smotri.1973.x264.BDRip720p-.mkv
Формат : Matroska
Размер файла : 4,37 Гбайт
Продолжительность : 1 ч. 50 м.
Общий поток : 5682 Кбит/сек
Дата кодирования : UTC 2011-08-19 05:19:24
Программа кодирования : mkvmerge v4.9.1 ('Ich will') built on Jul 11 2011 23:53:15
Библиотека кодирования : libebml v1.2.1 + libmatroska v1.1.1
Видео
Идентификатор : 1
Формат : AVC
Формат/Информация : Advanced Video Codec
Профиль формата : [email protected]
Параметр CABAC формата : Да
Параметр ReFrames формата : 8 кадры
Идентификатор кодека : V_MPEG4/ISO/AVC
Продолжительность : 1 ч. 50 м.
Битрейт : 5168 Кбит/сек
Ширина : 1280 пикс.
Высота : 688 пикс.
Соотношение сторон : 1,860
Частота кадров : 24,000 кадр/сек
Цветовое пространство : YUV
Подвыборка цветности : 4:2:0
Битовая глубина : 8 бит
Тип развёртки : Прогрессивная
Бит/(Пиксели*Кадры) : 0.245
Размер потока : 3,89 Гбайт (89%)
Библиотека кодирования : x264 core 116 r2057 0ba8a9c
Настройки программы : cabac=1 / ref=8 / deblock=1:0:0 / analyse=0x3:0x133 / me=umh / subme=8 / psy=1 / psy_rd=1.00:0.25 / mixed_ref=1 / me_range=32 / chroma_me=1 / trellis=2 / 8x8dct=1 / cqm=0 / deadzone=21,11 / fast_pskip=0 / chroma_qp_offset=-4 / threads=6 / sliced_threads=0 / nr=0 / decimate=1 / interlaced=0 / bluray_compat=0 / constrained_intra=0 / bframes=6 / b_pyramid=2 / b_adapt=2 / b_bias=0 / direct=3 / weightb=1 / open_gop=0 / weightp=2 / keyint=250 / keyint_min=23 / scenecut=40 / intra_refresh=0 / rc_lookahead=60 / rc=2pass / mbtree=1 / bitrate=5168 / ratetol=1.0 / qcomp=0.60 / qpmin=5 / qpmax=51 / qpstep=4 / cplxblur=20.0 / qblur=0.5 / ip_ratio=1.40 / aq=1:1.00
Язык : English
Аудио #1
Идентификатор : 2
Формат : AC-3
Формат/Информация : Audio Coding 3
Расширение режима : CM (complete main)
Идентификатор кодека : A_AC3
Продолжительность : 1 ч. 50 м.
Вид битрейта : Постоянный
Битрейт : 192 Кбит/сек
Канал(ы) : 2 канала(ов)
Расположение каналов : Front: L R
Частота : 48,0 КГц
Битовая глубина : 16 бит
Метод сжатия : С потерями
Размер потока : 151 Мбайт (3%)
Язык : Russian
Аудио #2
Идентификатор : 3
Формат : AC-3
Формат/Информация : Audio Coding 3
Расширение режима : CM (complete main)
Идентификатор кодека : A_AC3
Продолжительность : 1 ч. 50 м.
Вид битрейта : Постоянный
Битрейт : 320 Кбит/сек
Канал(ы) : 2 канала(ов)
Расположение каналов : Front: L R
Частота : 48,0 КГц
Битовая глубина : 16 бит
Метод сжатия : С потерями
Размер потока : 252 Мбайт (6%)
Язык : English
Текст
Идентификатор : 4
Формат : UTF-8
Идентификатор кодека : S_TEXT/UTF8
Идентификатор кодека/Информация : UTF-8 Plain Text
Язык : Russian

Скриншоты

               

_________________
Человек – это канат, натянутый между животным и сверхчеловеком, – канат над пропастью.
В человеке ценно то, что он мост, а не цель. Фридрих Ницше


Last edited by Delia on 2011-08-19 13:27; edited 1 time in total
Other forum [Profile] [PM]
Display posts from previous:    
Reply to topic

The time now is: Today 11:21

All times are GMT + 3 Hours



You cannot post new topics in this forum
You cannot reply to topics in this forum
You cannot edit your posts in this forum
You cannot delete your posts in this forum
You cannot vote in polls in this forum
You cannot attach files in this forum
You cannot download files in this forum