Today is a free download without charge Download

Я не должен был выжить / I Shouldn\'t Be Alive (2010-2012) IPTVRip [Сезон 4: серии 1-8, 13-20; Сезон 5: серии 1-8]

Reply to topic
 
Author
Message

UndegraundMen ®

Longevity: 7 years 7 months

Posts: 25145

Торрент-статистика

Post 14-Jun-2013 03:06

[Quote]

Я не должен был выжить / I Shouldn't Be Alive (2010-2012) IPTVRip-[Сезон 4: серии 1-8, 13-20; Сезон 5: серии 1-8]- Русское название: Я не должен был выжить
Оригинальное название: I Shouldn't Be Alive
Режиссер / Телекомпания: Discovery Channel
Год выпуска: 2010-2012
Жанр: Документальный
Описание:
Продолжение популярного сериала, повествующего о людях, оказавшихся в шаге от верной гибели, для которых встреча со смертью стала переломным эпизодом в биографии, тяжелым испытанием и – началом новой жизни. Подобное может произойти с каждым!
Основано на реальных событиях.

Продолжительность: 24 x ~43-50 мин. серия
Перевод: Одноголосый закадровый, профессиональный
Язык субтитров: Нет
Видеокодек: MPEG-2
Битрейт видео: ~1 500 Kbps
Размер кадра: 544x576 (Сезон 4: серии 13-20; Сезон 5: серии 01-02, 08), 720x576 (Сезон 4: серии 01-08; Сезон 5: серии 03-07)
Качество видео: IPTVRip
Развертка: Чересстрочная
Аудио:
1. [русский] MP2, 1.0 сh, 96 kbps
2. [английский] MP2, 1.0 сh, 96 kbps
Список серий:

Сезон 4, серии 1-8, 13-20

1.S04.Ep01.A Dad's Worst Nightmare
2.S04.Ep02.Shipwrecked Family
3.S04.Ep03..Edge of Death
4.S04.Ep04.Crashed in the Rockies
5.S04.Ep05.Death in the Sea of Cortez
6.S04.Ep06.76 Days Adrift
7.S04.Ep07.Alone in the Amazon
8.S04.Ep08.Vacation Nightmare
9.S04.Ep13.A Family's Desert Hell
10.S04.Ep14.Ocean Disaster
11.S04.Ep15.Left for Dead on Everest
12.S04.Ep16.A Father's Deadly Dilemma
13.S04.Ep17.Christmas Horror
14.S04.Ep18.Blood on the Mountain
15.S04.Ep19.Avalanche!
16.S04.Ep20.First Date Nightmare

Сезон 5, серии 1-8

17.S05.Ep01.Volcano Vacation Hell
18.S05.Ep02.Lost in the Jungle
19.S05.Ep03.Til Death Do Us Part
20.S05.Ep04.Chasm of death
21.S05.Ep05.Escape from Bear Mountain
22.S05.Ep06.Climb Out of Hell
23.S05.Ep07.Dive of Terror
24.S05.Ep08.Perfect Storm
Скриншоты 720x576:
         
Скриншоты 544x576:
         

MediaInfo (Сезон 4: серии 01-08; Сезон 5: серии 03-07

Общее
Полное имя : C:\Users\я\Documents\Торент\I Shouldn't Be Alive\S04.Ep03.Edge of Death.mpg
Формат: MPEG-PS
Размер файла : 421 Мбайт
Продолжительность : 43 м.
Режим общего битрейта : Переменный
Общий поток : 1342 Кбит/сек
Библиотека кодирования : (c) 1998-2010 Womble Multimedia, Inc. / MPEG Video Wizard DVD 5.0.0.114 (01/2010) / Nov 13 2010
Видео
Идентификатор : 224 (0xE0)
Формат : MPEG Video
Версия формата : Version 2
Профиль формата : [email protected]
Параметр BVOP формата : Да
Параметр матрицы формата : Выборочная
Параметр GOP формата : Variable
Продолжительность : 43 м.
Вид битрейта : Переменный
Битрейт : 1123 Кбит/сек
Максимальный битрейт : 5000 Кбит/сек
Ширина : 720 пикселей
Высота : 576 пикселей
Соотношение сторон : 4:3
Частота кадров : 25,000 кадров/сек
Стандарт вещания : PAL
Цветовое пространство : YUV
Субдискретизация насыщенности : 4:2:0
Битовая глубина : 8 бит
Тип развёртки : Чересстрочная
Порядок развёртки : Верхнее поле первое
Метод сжатия : С потерями
Бит/(Пиксели*Кадры) : 0.108
TimeCode_FirstFrame : 00:00:00:00
TimeCode_Source : Group of pictures header
Размер потока : 353 Мбайт (84%)
Библиотека кодирования : (c) 1998-2010 Womble Multimedia, Inc. / MPEG Video Wizard DVD 5.0.0.114 (01/2010) / Nov 13 2010
Аудио #1
Идентификатор : 192 (0xC0)
Формат : MPEG Audio
Версия формата : Version 1
Профиль формата : Layer 2
Продолжительность : 43 м.
Вид битрейта : Постоянный
Битрейт : 96,0 Кбит/сек
Каналы : 1 канал
Частота : 48,0 КГц
Метод сжатия : С потерями
Задержка видео : -120 мс.
Размер потока : 30,2 Мбайт (7%)
Аудио #2
Идентификатор : 193 (0xC1)
Формат : MPEG Audio
Версия формата : Version 1
Профиль формата : Layer 2
Продолжительность : 43 м.
Вид битрейта : Постоянный
Битрейт : 96,0 Кбит/сек
Каналы : 1 канал
Частота : 48,0 КГц
Метод сжатия : С потерями
Задержка видео : -120 мс.
Размер потока : 30,2 Мбайт (7%)

MediaInfo (Сезон 4: серии 13-20; Сезон 5: серии 01-02, 08

Общее
Полное имя: C:\Users\я\Documents\Торент\I Shouldn't Be Alive\S04.Ep18.Blood on the Mountain.mpg
Формат: MPEG-PS
Размер файла: 559 Мбайт
Продолжительность: 43 м.
Режим общего битрейта: Переменный
Общий поток: 1779 Кбит/сек
Библиотека кодирования: (c) 1998-2010 Womble Multimedia, Inc. / MPEG Video Wizard DVD 5.0.0.114 (01/2010) / Nov 13 2010
Видео
Идентификатор: 224 (0xE0)
Формат: MPEG Video
Версия формата: Version 2
Профиль формата: [email protected]
Параметр BVOP формата: Да
Параметр матрицы формата: Выборочная
Параметр GOP формата: Variable
Продолжительность: 43 м.
Вид битрейта: Переменный
Битрейт: 1551 Кбит/сек
Максимальный битрейт: 5000 Кбит/сек
Ширина: 544 пикселя
Высота: 576 пикселей
Соотношение сторон: 4:3
Частота кадров: 25,000 кадров/сек
Цветовое пространство: YUV
Субдискретизация насыщенности: 4:2:0
Битовая глубина: 8 бит
Тип развёртки: Чересстрочная
Порядок развёртки: Верхнее поле первое
Метод сжатия: С потерями
Бит/(Пиксели*Кадры): 0.198
TimeCode_FirstFrame: 00:00:00:00
TimeCode_Source: Group of pictures header
Размер потока: 488 Мбайт (87%)
Библиотека кодирования: (c) 1998-2010 Womble Multimedia, Inc. / MPEG Video Wizard DVD 5.0.0.114 (01/2010) / Nov 13 2010
Аудио #1
Идентификатор: 192 (0xC0)
Формат: MPEG Audio
Версия формата: Version 1
Профиль формата: Layer 2
Продолжительность: 43 м.
Вид битрейта: Постоянный
Битрейт: 96,0 Кбит/сек
Каналы: 1 канал
Частота: 48,0 КГц
Метод сжатия: С потерями
Задержка видео: -40 мс.
Размер потока: 30,2 Мбайт (5%)
Аудио #2
Идентификатор: 193 (0xC1)
Формат: MPEG Audio
Версия формата: Version 1
Профиль формата: Layer 2
Продолжительность: 43 м.
Вид битрейт: Постоянный
Битрейт: 96,0 Кбит/сек
Каналы: 1 канал
Частота: 48,0 КГц
Метод сжатия: С потерями
Задержка видео: -40 мс.
Размер потока: 30,2 Мбайт (5
Other forum [Profile] [PM]
Display posts from previous:    
Reply to topic

The time now is: Today 23:38

All times are GMT + 3 Hours



You cannot post new topics in this forum
You cannot reply to topics in this forum
You cannot edit your posts in this forum
You cannot delete your posts in this forum
You cannot vote in polls in this forum
You cannot attach files in this forum
You cannot download files in this forum