Today is a free download without charge Download

Безумец / Insane (Андерс Якобссон, Томас Сэндквист) [2010 г., ужасы, DVD5]

Reply to topic
 
Author
Message

sassad ®

Gender:

Longevity: 8 years 7 months

Posts: 1214

Location: Галич

Торрент-статистика

Post 18-Aug-2011 23:24

[Quote]

Безумец / Insane--
Год выпуска: 2010
Жанр: Ужасы, Триллер
Режиссер: Андерс Якобссон, Томас Сэндквист
Продюсер: Генри Колман, Андерс Якобссон
Актеры: Якобссон Антон, Ларс Бетке, Томми Холл, Дэвид Линеман, Мария Литорелл, Джордж Мэррой, Алида Морберг, Лена Штром--Продолжительность: 01:26:59
Производство: Швеция / Action Film AB
Перевод: Одноголосый закадровый
Язык субтитров: Шведские, голландские, английские
Вид субтитров: Вшитые
Меню: нет

-Описание:
Одинокий отель у дороги. Сара потерялась и ищет место для ночлега. Но она пришла не туда.
Сара пропала, Дженни ищет ее. И она пришла как раз туда, куда надо. В отель Бриджберн.
Качество видео: DVD5
Видео: MPEG-2 ~5624 Кбит/сек 1024х576 @ 720x576 пикс. 16:9 25,000 кадр/сек PAL
Аудио 1: AC3 192 Кбит/сек 2 канала(ов) 48,0 КГц 16 бит - Русский
Аудио 2: AC3 448 Кбит/сек 6 канала(ов) 48,0 КГц 16 бит - Английский
Аудио 3: DTS 775 Кбит/сек 6 канала(ов) 48,0 КГц 16 бит - Английский
Региональная защита снята!

Скриншоты:

           

MediaInfo:

Общее
Полное имя : K:\Insane_(2010)_DVD5_R1\VIDEO_TS\VTS_01_3.VOB
Формат : MPEG-PS
Размер файла : 1024 Мбайт
Продолжительность : 19 м.
Общий поток : 7161 Кбит/сек
Видео
Идентификатор : 224 (0xE0)
Формат : MPEG Video
Версия формата : Version 2
Профиль формата : [email protected]
Параметр BVOP формата : Да
Параметр матрицы формата : По умолчанию
Параметры GOP формата : M=3, N=12
Продолжительность : 19 м.
Вид битрейта : Переменный
Битрейт : 5624 Кбит/сек
Номинальный битрейт : 8379 Кбит/сек
Ширина : 720 пикс.
Высота : 576 пикс.
Соотношение сторон : 16:9
Частота кадров : 25,000 кадр/сек
Стандарт вещания : PAL
Цветовое пространство : YUV
Подвыборка цветности : 4:2:0
Битовая глубина : 8 бит
Тип развёртки : Прогрессивная
Порядок развёртки : Нижнее поле первое
Метод сжатия : С потерями
Бит/(Пиксели*Кадры) : 0.542
Размер потока : 804 Мбайт (79%)
Аудио #1
Идентификатор : 189 (0xBD)-128 (0x80)
Формат : AC-3
Формат/Информация : Audio Coding 3
Расширение режима : CM (complete main)
Режим смешивания : DVD-Video
Продолжительность : 19 м.
Вид битрейта : Постоянный
Битрейт : 192 Кбит/сек
Канал(ы) : 2 канала(ов)
Расположение каналов : Front: L R
Частота : 48,0 КГц
Битовая глубина : 16 бит
Метод сжатия : С потерями
Задержка видео : -624 мс.
Размер потока : 27,5 Мбайт (3%)
Аудио #2
Идентификатор : 189 (0xBD)-129 (0x81)
Формат : AC-3
Формат/Информация : Audio Coding 3
Расширение режима : CM (complete main)
Режим смешивания : DVD-Video
Продолжительность : 19 м.
Вид битрейта : Постоянный
Битрейт : 448 Кбит/сек
Канал(ы) : 6 канала(ов)
Расположение каналов : Front: L C R, Side: L R, LFE
Частота : 48,0 КГц
Битовая глубина : 16 бит
Метод сжатия : С потерями
Задержка видео : -752 мс.
Размер потока : 64,1 Мбайт (6%)
Аудио #3
Идентификатор : 189 (0xBD)-138 (0x8A)
Формат : DTS
Формат/Информация : Digital Theater Systems
Режим смешивания : DVD-Video
Продолжительность : 19 м.
Вид битрейта : Постоянный
Битрейт : 755 Кбит/сек
Канал(ы) : 6 канала(ов)
Расположение каналов : Front: L C R, Side: L R, LFE
Частота : 48,0 КГц
Битовая глубина : 16 бит
Метод сжатия : С потерями
Задержка видео : -795 мс.
Размер потока : 108 Мбайт (11%)
Текст
Идентификатор : 189 (0xBD)-34 (0x22)
Формат : RLE
Формат/Информация : Run-length encoding
Режим смешивания : DVD-Video

Обложка DVD


_________________


Last edited by sassad on 2011-08-18 23:26; edited 1 time in total
Other forum [Profile] [PM]

Dracula

Longevity: 6 years 1 month

Posts: 10646

Торрент-статистика

Post 19-Aug-2011 01:16 (after 1 hour 52 minutes)

Топик был перенесен из форума Фильмы 2006-2010 в форум Зарубежное кино (DVD)

Delia
 
Similar theme
Forum Topic Author Torrent Replies Last Post
./templates/default/images/folder_dl.gif Психология, Тренинг, Саморазвитие Александр Свияш | Как разумные люди создают безумный мир. Негативные эмоции. Поймать и обезвредить (2018) [PDF] }{@R0N
1 | 0

0 | 1051

1

2019-03-17 22:54
}{@R0N Latest
Display posts from previous:    
Reply to topic

The time now is: Today 20:50

All times are GMT + 3 Hours



You cannot post new topics in this forum
You cannot reply to topics in this forum
You cannot edit your posts in this forum
You cannot delete your posts in this forum
You cannot vote in polls in this forum
You cannot attach files in this forum
You cannot download files in this forum