Today is a free download without charge Download

The Black Keys (with Dr. John and the Preservation Hall Jazz Band) • Lonely Boy [2013, Garage Rock, Blues Rock, HDTV 1080i]

Reply to topic
 
Author
Message

Omen ®

Longevity: 8 years 3 months

Posts: 181087

Торрент-статистика

Post 13-Jun-2013 17:57

[Quote]

The Black Keys
• with Dr. John & the Preservation Hall Jazz Band •

The 55th Annual Grammy Awards
Staples Center
Los Angeles, CA


Жанр: Garage Rock, Blues Rock
Продолжительность: 00:03:50
Год выпуска: February 10, 2013

Треклист

01. Lonely Boy
Качество: HDTV 1080i
Контейнер: TS
Видео кодек: MPEG2
Аудио кодек: AC3
Видео: MPEG2 Video 1920x1080 29.97fps 15.7 Mbps
Аудио: Dolby AC3 48000Hz 6ch 384kbps

Отчёт MediaInfo / BDInfo

ОбщееИдентификатор : 1 (0x1)Полное имя : E:\The Black Keys - Lonely Boy.tsФормат : MPEG-TSРазмер файла : 464 МбайтПродолжительность : 3 м. 49 с.Режим общего битрейта : ПеременныйОбщий поток : 16,9 Мбит/сек
ВидеоИдентификатор : 49 (0x31)Идентификатор меню : 1 (0x1)Формат : MPEG VideoВерсия формата : Version 2Профиль формата : [email protected]Параметр BVOP формата : ДаПараметр матрицы формата : ВыборочнаяПараметр GOP формата : VariableИдентификатор кодека : 2Продолжительность : 3 м. 49 с.Вид битрейта : ПеременныйБитрейт : 15,7 Мбит/секМаксимальный битрейт : 80,0 Мбит/секШирина : 1920 пикселейВысота : 1080 пикселейСоотношение сторон : 16:9Частота кадров : 29,970 кадров/секЦветовое пространство : YUVСубдискретизация насыщенности : 4:2:0Битовая глубина : 8 битТип развёртки : ЧересстрочнаяПорядок развёртки : Верхнее поле первоеМетод сжатия : С потерямиБит/(Пиксели*Кадры) : 0.253TimeCode_FirstFrame : 00:00:00;00TimeCode_Source : Group of pictures headerРазмер потока : 430 Мбайт (93%)Основные цвета : BT.709Характеристики трансфера : BT.709Коэффициенты матрицы : BT.709
АудиоИдентификатор : 52 (0x34)Идентификатор меню : 1 (0x1)Формат : AC-3Формат/Информация : Audio Coding 3Расширение режима : CM (complete main)Параметр Endianness формата : BigИдентификатор кодека : 129Продолжительность : 3 м. 49 с.Вид битрейта : ПостоянныйБитрейт : 384 Кбит/секКаналы : 6 каналовРасположение каналов : Front: L C R, Side: L R, LFEЧастота : 48,0 КГцБитовая глубина : 16 битМетод сжатия : С потерямиЗадержка видео : 16 мс.Размер потока : 10,5 Мбайт (2%)Язык : English

Скриншоты

Other forum [Profile] [PM]
Similar theme
Forum Topic Author Torrent Replies Last Post
./templates/default/images/folder_dl.gif Metal (Black Metal) [CD] Vergelmer - Light The Black Flame - 1997, FLAC (image+.cue), lossless Omen
1 | 0

0 | 2099

20

2015-03-30 15:03
Omen Latest
Display posts from previous:    
Reply to topic

The time now is: Today 23:59

All times are GMT + 3 Hours



You cannot post new topics in this forum
You cannot reply to topics in this forum
You cannot edit your posts in this forum
You cannot delete your posts in this forum
You cannot vote in polls in this forum
You cannot attach files in this forum
You cannot download files in this forum