Today is a free download without charge Download

АвтоРадио дарит"Машину Времени".Самара,12.06.13. [2013, Rock, HDCam]

Reply to topic
 
Author
Message

Omen ®

Longevity: 8 years 3 months

Posts: 181087

Торрент-статистика

Post 13-Jun-2013 01:44

[Quote]

АвтоРадио дарит"Машину Времени".Самара,12.06.13.
Жанр: Rock
Продолжительность: 01:19:17
Год выпуска: 2013
Описание: Запись с концерта гр.Машина Времени,прошедшего в г.Самара,в рамках тура"Авторадио дарит Машину"12 июня 2013 года.
Качество: FullHDCam
Контейнер: M2TS
Видео кодек: AVC
Аудио кодек: AC3
Видео: AVC,1920х1080(16*9),16mbps,25.000fps
Аудио: АС-3,256 kbps,48.0 khz,2ch.

Отчёт MediaInfo / BDInfo

GeneralID : 0 (0x0)Complete name : C:\Users\Stopper_68\Videos\Торенты\Машина Времени\00106.MTSFormat : BDAVFormat/Info : Blu-ray VideoFile size : 9.86GbDuration : 1h19mn17secOverall bit rate mode : VariableOverall bit rate : 17.0 MbpsMaximum Overall bit rate : 18.0 Mbps
VideoID : 4113 (0x1011)Menu ID : 1 (0x1)Format : AVCFormat/Info : Advanced Video CodecFormat profile : [email protected] settings, CABAC : YesFormat settings, ReFrames : 2 framesFormat settings, GOP : M=2, N=13Codec ID : 27Duration : 1h19mn17secBit rate mode : VariableBit rate : 16.0 MbpsWidth : 1 920 pixelsHeight : 1 080 pixelsDisplay aspect ratio : 16:9Frame rate : 25.000 fpsColor space : YUVChroma subsampling : 4:2:0Bit depth : 8 bitsScan type : InterlacedScan order : Top Field FirstBits/(Pixel*Frame) : 0.309Stream size : 768 MiB (94%)
AudioID : 4352 (0x1100)Menu ID : 1 (0x1)Format : AC-3Format/Info : Audio Coding 3Mode extension : CM (complete main)Format settings, Endianness : BigCodec ID : 129Duration : 1h19mn17secBit rate mode : ConstantBit rate : 256 KbpsChannel(s) : 2 channelsChannel positions : Front: L RSampling rate : 48.0 KHzBit depth : 16 bitsCompression mode : LossyDelay relative to video : -80msStream size : 12.2 MiB (2%)

Скриншоты




Other forum [Profile] [PM]
Similar theme
Forum Topic Author Torrent Replies Last Post
./templates/default/images/folder_dl.gif Фантастика, фэнтези, ужасы, мистика САГА О КОНАНЕ (межавторские серии) [1992-2009/ DJVU, EPUB, FB2, PDF / RUS] Omen
0 | 1

0 | 576

0

2015-10-24 09:00
Omen Latest
Display posts from previous:    
Reply to topic

The time now is: Today 23:04

All times are GMT + 3 Hours



You cannot post new topics in this forum
You cannot reply to topics in this forum
You cannot edit your posts in this forum
You cannot delete your posts in this forum
You cannot vote in polls in this forum
You cannot attach files in this forum
You cannot download files in this forum