Today is a free download without charge Download

Они сражались за Родину (Сергей Бондарчук) [1975, СССР, Кинороман, Военная драма, HDTV 1080i]

Reply to topic
 
Author
Message

Omen ®

Longevity: 8 years 10 months

Posts: 181086

Торрент-статистика

Post 12-Jun-2013 21:40

[Quote]

Они сражались за Родину
Страна: СССР
Студия: Мосфильм, Первое творческое объединение
Жанр: Кинороман, Военная драма
Год выпуска: 1975
Продолжительность: 02:30:28
Cубтитры: нет
Режиссер: Сергей Бондарчук
В ролях: Василий Шукшин, Вячеслав Тихонов, Сергей Бондарчук, Георгий Бурков, Юрий Никулин, Иван Лапиков, Николай Губенко, Андрей Ростоцкий, Николай Волков, Николай Шутько, Евгений Самойлов, Нонна Мордюкова, Иннокентий Смоктуновский, Ангелина Степанова, Ирина Скобцева, Татьяна Божок, Лидия Федосеева-Шукшина, Даниил Ильченко, Алексей Ванин, Николай Горлов, Геннадий Сафронов, Борис Никифоров и другие.
Описание: По мотивам одноимённого произведения М.А. Шолохова. Июль 1942 года. На подступах к Сталинграду обескровленные, измотанные советские войска ведут тяжёлые оборонительные бои, неся огромные потери… Они не сломлены неудачами и не потеряли веры в победу. Временами им кажется, что нет никакой войны. На дороге – широкие следы танковых гусениц, чётко отпечатанные в серой пыли. А по сторонам – словно вымершая от зноя степь: устало полёгшие травы, тускло блестящие солончаки, голубое и трепетное марево над дальними курганами. В абсурдном столкновении тёплой дышащей земли и бесчеловечной машины войны – сильнейшее библейское обобщение, метафора противостояния вечной жизни тёмным силам зла.
Семпл: http://multi-up.com/874852
Тип релиза: HDTV 1080i
Контейнер: TS
Доп. информация: Релиз -

Рип чистый. Без посторонних надписей. Выкладывается как есть.
Видео кодек: AVC
Аудио кодек: AC3, MP2
Видео: 1920x1080 (16:9) 25.000 fps 7 430 Kbps, 0.143 bit/pixel
Аудио 1: MPEG Audio 48000Hz stereo 192 Кбит/сек
Аудио 2: AC3 384 Kbps, 2 channels

Скриншоты


Скриншот с названием фильма

MI

GeneralID : 1 (0x1)Complete name : D:\Выкладка\Они сражались за Родину (1975, Кинороман, Военная драма, HDTV 1080i) (MYDIMKA).tsFormat : MPEG-TSFile size : 8.86 GiBDuration : 2h 30mnOverall bit rate mode : VariableOverall bit rate : 8 429 Kbps
VideoID : 305 (0x131)Menu ID : 1 (0x1)Format : AVCFormat/Info : Advanced Video CodecFormat profile : [email protected] settings, CABAC : YesFormat settings, ReFrames : 3 framesCodec ID : 27Duration : 2h 30mnBit rate : 7 430 KbpsWidth : 1 920 pixelsHeight : 1 080 pixelsDisplay aspect ratio : 16:9Frame rate : 25.000 fpsStandard : ComponentColor space : YUVChroma subsampling : 4:2:0Bit depth : 8 bitsScan type : InterlacedScan order : Top Field FirstBits/(Pixel*Frame) : 0.143Stream size : 7.81 GiB (88%)Color primaries : BT.709Transfer characteristics : BT.709Matrix coefficients : BT.709
Audio #1ID : 404 (0x194)Menu ID : 1 (0x1)Format : AC-3Format/Info : Audio Coding 3Mode extension : CM (complete main)Format settings, Endianness : BigCodec ID : 6Duration : 2h 30mnBit rate mode : ConstantBit rate : 384 KbpsChannel(s) : 2 channelsChannel positions : Front: L RSampling rate : 48.0 KHzBit depth : 16 bitsCompression mode : LossyStream size : 413 MiB (5%)Language : English
Audio #2ID : 405 (0x195)Menu ID : 1 (0x1)Format : MPEG AudioFormat version : Version 1Format profile : Layer 2Codec ID : 3Duration : 2h 30mnBit rate mode : ConstantBit rate : 192 KbpsChannel(s) : 2 channelsSampling rate : 48.0 KHzCompression mode : LossyStream size : 207 MiB (2%)Language : English
Other forum [Profile] [PM]

Dracula

Longevity: 7 years 11 months

Posts: 11007

Торрент-статистика

Post 14-Jun-2013 09:09 (after 1 day 11 hours)

Топик был перенесен из форума Зарубежное кино (HD Video) в форум Наше кино


Delia
 
Display posts from previous:    
Reply to topic

The time now is: Today 03:56

All times are GMT + 3 Hours



You cannot post new topics in this forum
You cannot reply to topics in this forum
You cannot edit your posts in this forum
You cannot delete your posts in this forum
You cannot vote in polls in this forum
You cannot attach files in this forum
You cannot download files in this forum