Today is a free download without charge Download

Призраки Молли Хартли / The Haunting of Molly Hartley (Мики Лиделл) [2008 г., ужасы, триллер, драма, BDRip]

Reply to topic
 
Author
Message

sassad ®

Gender:

Longevity: 8 years 7 months

Posts: 1214

Location: Галич

Торрент-статистика

Post 18-Aug-2011 18:14

[Quote]

Призраки Молли Хартли / The Haunting of Molly Hartley--
Год выпуска: 2008
Страна: США
Жанр: ужасы, триллер, драма
Продолжительность: 82 мин.
Перевод: Профессиональный (полное дублирование)-Режиссер: Мики Лиделл
Продюссер: Дженнифер Хилтон, Джерри П. Джейкобс, Брюс Вейн Гиллис
Сценарий: Джон Трэвис, Ребекка Сонненшайн-Бюджет: $5 000 000
Премьера в мире: 31 октября 2008
3.70 (4 722)

В ролях: Хейли Беннетт, Джейк Уэбер, Чейс Кроуфорд, Шеннон Мари Вудворд, Шэнна Коллинз, АннаЛинн МакКорд, Марин Хинкль, Нина Семашко, Джош Стюарт, Джессика Лаундес-Описание: Выбирая учебное заведение — не ошибись! Молли Хартли стала обычной ученицей очень необычной школы, но пока она не знает об этом. Новые подруги, первая любовь, и очень странные домашние задания: преодолеть страх, перетерпеть ужас и скрыться от преследования. Нечто таинственное и мистическое вторглось в её жизнь. Только в канун 18-летия Молли понимает, что она не такая как все...-Качество: BDRip
Формат: MKV
Видео кодек: H.264
Аудио кодек: AC3
Видео: 1920x1040,11.9 Мбит/с
Аудио: Audio 1: Русский (АС3, 6 ch, 384 Кбит/сб 48.0 KHz),
Audio 2: Aнглийский (DTS, 6 ch, 1536 Кбит/сб 48.0 KHz)
--

MediaInfo

Format : Matroska
File size : 8.17 GiB
Duration : 1h 25mn
Overall bit rate : 13.7 Mbps
Movie name : =kinozal.tv-HD=
Encoded date : UTC 2009-10-09 07:11:43
Writing application : mkvmerge v2.9.8 ('C'est le bon') built on Aug 13 2009 12:49:06
Writing library : libebml v0.7.7 + libmatroska v0.8.1
Video
ID : 1
Format : AVC
Format/Info : Advanced Video Codec
Format profile : [email protected]
Format settings, CABAC : Yes
Format settings, ReFrames : 4 frames
Muxing mode : Container [email protected]
Codec ID : V_MPEG4/ISO/AVC
Duration : 1h 25mn
Bit rate : 11.6 Mbps
Nominal bit rate : 11.9 Mbps
Width : 1 920 pixels
Height : 1 040 pixels
Display aspect ratio : 16:9
Frame rate : 24.000 fps
Resolution : 8 bits
Colorimetry : 4:2:0
Scan type : Progressive
Bits/(Pixel*Frame) : 0.241
Stream size : 6.88 GiB (84%)
Writing library : x264 core 76 r1271 496d79d
Encoding settings : cabac=1 / ref=4 / deblock=1:0:0 / analyse=0x3:0x2 / me=umh / subme=7 / psy=1 / psy_rd=1.0:0.0 / mixed_ref=1 / me_range=16 / chroma_me=1 / trellis=1 / 8x8dct=1 / cqm=0 / deadzone=21,11 / chroma_qp_offset=-2 / threads=3 / nr=0 / decimate=1 / mbaff=0 / bframes=3 / b_pyramid=0 / b_adapt=1 / b_bias=0 / direct=3 / wpredb=1 / keyint=250 / keyint_min=25 / scenecut=40 / rc_lookahead=40 / rc=2pass / mbtree=1 / bitrate=11879 / ratetol=1.0 / qcomp=0.60 / qpmin=10 / qpmax=51 / qpstep=4 / cplxblur=20.0 / qblur=0.5 / ip_ratio=1.40 / aq=1:1.00
Audio #1
ID : 2
Format : AC-3
Format/Info : Audio Coding 3
Codec ID : A_AC3
Duration : 1h 25mn
Bit rate mode : Constant
Bit rate : 384 Kbps
Channel(s) : 6 channels
Channel positions : Front: L C R, Surround: L R, LFE
Sampling rate : 48.0 KHz
Video delay : 10ms
Stream size : 234 MiB (3%)
Language : Russian
Audio #2
ID : 3
Format : DTS
Format/Info : Digital Theater Systems
Codec ID : A_DTS
Duration : 1h 25mn
Bit rate mode : Constant
Bit rate : 1 510 Kbps
Channel(s) : 6 channels
Channel positions : Front: L C R, Surround: L R, LFE
Sampling rate : 48.0 KHz
Resolution : 16 bits
Stream size : 921 MiB (11%)
Language : English
--          --

_________________
Other forum [Profile] [PM]
Display posts from previous:    
Reply to topic

The time now is: Today 18:02

All times are GMT + 3 Hours



You cannot post new topics in this forum
You cannot reply to topics in this forum
You cannot edit your posts in this forum
You cannot delete your posts in this forum
You cannot vote in polls in this forum
You cannot attach files in this forum
You cannot download files in this forum