Today is a free download without charge Download

Михаил Наими | Книга Мирдада [2013] [MP3]

Reply to topic
 
Author
Message

UndegraundMen ®

Longevity: 6 years 5 months

Posts: 25145

Торрент-статистика

Post 12-Jun-2013 04:16

[Quote]

Михаил Наими | Книга Мирдада [2013] [MP3] - Автор: Михаил Наими
Название: Книга Мирдада
Год: 2013
Жанр: Притча
Читает: Nikosho (ЛИ)
Продолжительность (время звучания): 08:38:20
Формат (аудиокодек): MP3
Битрейт аудио: 320 kb/s - CBR
Издательство: Аудиокнига своими руками
Описание:-Это загадочное и мистическое произведение принадлежит перу классика современной арабской литературы Михаила Наими, друга выдающегося арабо-американского писателя, поэта, философа и художника Халиля Джебрана.
Ошо, просветленный мастер XX столетия, так говорит об этой книге: «Книга Мирдада» — одна из моих самых любимых книг. Она из тех книг, которые будут жить вечно. Если бы я должен был составить список великих книг, ее бы я поставил первой».
В книге говорится о том, что важно для каждого человека: любовь и ненависть, вера и предательство, время и смерть, добро и зло. Легенда, философия и поэзия волшебным образом переплелись в этой необыкновенной книге. Ее вековая мудрость и мягкая лиричность образуют экзотический узор восточной притчи.
-

Трек лист:

01.. Блуждающий монах (33:38)
02.. Хранитель книги (31:36)
03.. Книга (20:11)
04.. Святая Троица (19:15)
05.. Мастер и слуга (26:06)
06.. Путь к жизни без боли (28:15)
07.. О творческой тишине (49:59)
08.. Колесо времени (39:47)
09.. О человеке обновленном (1:06:23)
10.. О власти (32:40)
11.. Возвращение Мирдада (27:19)
12.. Великая Ностальгия (36:27)
13.. О несравненная певица ночь (36:05)
14.. Искры на пути к Богу (50:30)

Дополнительная информация:

Михаил Наими родился в 1889 году в ливанской деревушке Бишкинта, которая расположена высоко на склоне горы Саннин, откуда просматривается все Восточное Средиземноморье. Многие черты обстановки и символы для своих художественных и медитативных произведений М.Наими позаимствовал у восхитительно прекрасной природы этих величественных мест. В особенности это относится к "Книге Мирдада".
В поисках образования Наими покинул свою деревню, где он обучался в школе при греческой православной церкви. Он поступил в Педагогический Институт в Назарете, в Палестине. Затем учился в Семинарии в Полтаве, в России. Закончил он свое образование в университете города Вашингтона, США, где в 1916 году получил степень доктора философии и свободных искусств.
Перебравшись в Нью-Йорк, он вместе с Халилом Джебраном и еще с восемью молодыми литераторами основывает энергичное движение, которое производит настоящую революцию в арабской литературе. В 1932 году, после смерти Халила Джебрана, он возвращается в свои любимые места, в деревню Бишкинта, где он все время, вплоть до самой смерти в 1988 году, посвящает литературному труду. Им написана тридцать одна книга, каждая из которых в арабоязычных странах признается классической. Сюда входят драмы, поэзия, критические статьи, короткие рассказы, биографии, автобиография и эссе, посвященные глубоким вопросам человеческого бытия.
Наряду с "Книгой Мирдада", которая была переведена на множество языков мира, на западе М.Наими известен еще и как автор ряда произведений таких, как "Памяти Бродяжей Души", "Пока Мы не Встретимся", а также биографии Халила Джебрана.-

mediainfo

Общее
Полное имя : D:\MEDIA\Audio\Книга Мирдада\01. Блуждающий монах.mp3
Формат : MPEG Audio
Размер файла : 77,0 Мбайт
Продолжительность : 33 м.
Режим общего битрейта : Постоянный
Общий поток : 320 Кбит/сек
Альбом : Книга Мирдада
Трек : Блуждающий монах
Трек/Положение : 01
Исполнитель : Nikosho
Композитор : Михаил Наими
Дата записи : 2013
Библиотека кодирования : LAME3.99r
Аудио
Формат : MPEG Audio
Версия формата : Version 1
Профиль формата : Layer 3
Режим : Joint stereo
Продолжительность : 33 м.
Вид битрейта : Постоянный
Битрейт : 320 Кбит/сек
Каналы : 2 канала
Частота : 44,1 КГц
Метод сжатия : С потерями
Размер потока : 77,0 Мбайт (100%)
Библиотека кодирования : LAME3.99r
Настройки программы : -m j -V 4 -q 3 -lowpass 20.5
Общее
Полное имя : D:\MEDIA\Audio\Книга Мирдада\02. Хранитель книги.mp3
Формат : MPEG Audio
Размер файла : 72,3 Мбайт
Продолжительность : 31 м.
Режим общего битрейта : Постоянный
Общий поток : 320 Кбит/сек
Альбом : Книга Мирдада
Трек : Хранитель книги
Трек/Положение : 02
Исполнитель : Nikosho
Композитор : Михаил Наими
Дата записи : 2013
Библиотека кодирования : LAME3.99r
Аудио
Формат : MPEG Audio
Версия формата : Version 1
Профиль формата : Layer 3
Режим : Joint stereo
Продолжительность : 31 м.
Вид битрейта : Постоянный
Битрейт : 320 Кбит/сек
Каналы : 2 канала
Частота : 44,1 КГц
Метод сжатия : С потерями
Размер потока : 72,3 Мбайт (100%)
Библиотека кодирования : LAME3.99r
Настройки программы : -m j -V 4 -q 3 -lowpass 20.5
Общее
Полное имя : D:\MEDIA\Audio\Книга Мирдада\03. Книга — копия.mp3
Формат : MPEG Audio
Размер файла : 46,2 Мбайт
Продолжительность : 20 м.
Режим общего битрейта : Постоянный
Общий поток : 320 Кбит/сек
Альбом : Книга Мирдада
Трек : Книга
Трек/Положение : 03
Исполнитель : Nikosho
Композитор : Михаил Наими
Дата записи : 2013
Библиотека кодирования : LAME3.99r
Аудио
Формат : MPEG Audio
Версия формата : Version 1
Профиль формата : Layer 3
Режим : Joint stereo
Продолжительность : 20 м.
Вид битрейта : Постоянный
Битрейт : 320 Кбит/сек
Каналы : 2 канала
Частота : 44,1 КГц
Метод сжатия : С потерями
Размер потока : 46,2 Мбайт (100%)
Библиотека кодирования : LAME3.99r
Настройки программы : -m j -V 4 -q 3 -lowpass 20.5
Общее
Полное имя : D:\MEDIA\Audio\Книга Мирдада\03. Книга.mp3
Формат : MPEG Audio
Размер файла : 46,2 Мбайт
Продолжительность : 20 м.
Режим общего битрейта : Постоянный
Общий поток : 320 Кбит/сек
Альбом : Книга Мирдада
Трек : Книга
Трек/Положение : 03
Исполнитель : Nikosho
Композитор : Михаил Наими
Дата записи : 2013
Библиотека кодирования : LAME3.99r
Аудио
Формат : MPEG Audio
Версия формата : Version 1
Профиль формата : Layer 3
Режим : Joint stereo
Продолжительность : 20 м.
Вид битрейта : Постоянный
Битрейт : 320 Кбит/сек
Каналы : 2 канала
Частота : 44,1 КГц
Метод сжатия : С потерями
Размер потока : 46,2 Мбайт (100%)
Библиотека кодирования : LAME3.99r
Настройки программы : -m j -V 4 -q 3 -lowpass 20.5
Общее
Полное имя : D:\MEDIA\Audio\Книга Мирдада\04. Святая Троица.mp3
Формат : MPEG Audio
Размер файла : 44,1 Мбайт
Продолжительность : 19 м.
Режим общего битрейта : Постоянный
Общий поток : 320 Кбит/сек
Альбом : Книга Мирдада
Трек : Святая Троица
Трек/Положение : 04
Исполнитель : Nikosho
Композитор : Михаил Наими
Дата записи : 2013
Библиотека кодирования : LAME3.99r
Аудио
Формат : MPEG Audio
Версия формата : Version 1
Профиль формата : Layer 3
Режим : Joint stereo
Продолжительность : 19 м.
Вид битрейта : Постоянный
Битрейт : 320 Кбит/сек
Каналы : 2 канала
Частота : 44,1 КГц
Метод сжатия : С потерями
Размер потока : 44,1 Мбайт (100%)
Библиотека кодирования : LAME3.99r
Настройки программы : -m j -V 4 -q 3 -lowpass 20.5
Общее
Полное имя : D:\MEDIA\Audio\Книга Мирдада\05. Мастер и слуга.mp3
Формат : MPEG Audio
Размер файла : 59,8 Мбайт
Продолжительность : 26 м.
Режим общего битрейта : Постоянный
Общий поток : 320 Кбит/сек
Альбом : Книга Мирдада
Трек : Мастер и слуга
Трек/Положение : 05
Исполнитель : Nikosho
Композитор : Михаил Наими
Дата записи : 2013
Библиотека кодирования : LAME3.99r
Аудио
Формат : MPEG Audio
Версия формата : Version 1
Профиль формата : Layer 3
Режим : Joint stereo
Продолжительность : 26 м.
Вид битрейта : Постоянный
Битрейт : 320 Кбит/сек
Каналы : 2 канала
Частота : 44,1 КГц
Метод сжатия : С потерями
Размер потока : 59,8 Мбайт (100%)
Библиотека кодирования : LAME3.99r
Настройки программы : -m j -V 4 -q 3 -lowpass 20.5
Общее
Полное имя : D:\MEDIA\Audio\Книга Мирдада\06. Путь к жизни без боли.mp3
Формат : MPEG Audio
Размер файла : 64,7 Мбайт
Продолжительность : 28 м.
Режим общего битрейта : Постоянный
Общий поток : 320 Кбит/сек
Альбом : Книга Мирдада
Трек : Путь к жизни без боли
Трек/Положение : 06
Исполнитель : Nikosho
Композитор : Михаил Наими
Дата записи : 2013
Библиотека кодирования : LAME3.99r
Аудио
Формат : MPEG Audio
Версия формата : Version 1
Профиль формата : Layer 3
Режим : Joint stereo
Продолжительность : 28 м.
Вид битрейта : Постоянный
Битрейт : 320 Кбит/сек
Каналы : 2 канала
Частота : 44,1 КГц
Метод сжатия : С потерями
Размер потока : 64,6 Мбайт (100%)
Библиотека кодирования : LAME3.99r
Настройки программы : -m j -V 4 -q 3 -lowpass 20.5
Общее
Полное имя : D:\MEDIA\Audio\Книга Мирдада\07. О творческой тишине.mp3
Формат : MPEG Audio
Размер файла : 114 Мбайт
Продолжительность : 49 м.
Режим общего битрейта : Постоянный
Общий поток : 320 Кбит/сек
Альбом : Книга Мирдада
Трек : О творческой тишине
Трек/Положение : 07
Исполнитель : Nikosho
Композитор : Михаил Наими
Дата записи : 2013
Библиотека кодирования : LAME3.99r
Аудио
Формат : MPEG Audio
Версия формата : Version 1
Профиль формата : Layer 3
Режим : Joint stereo
Продолжительность : 50 м.
Вид битрейта : Постоянный
Битрейт : 320 Кбит/сек
Каналы : 2 канала
Частота : 44,1 КГц
Метод сжатия : С потерями
Размер потока : 114 Мбайт (100%)
Библиотека кодирования : LAME3.99r
Настройки программы : -m j -V 4 -q 3 -lowpass 20.5
Общее
Полное имя : D:\MEDIA\Audio\Книга Мирдада\08. Колесо времени.mp3
Формат : MPEG Audio
Размер файла : 91,0 Мбайт
Продолжительность : 39 м.
Режим общего битрейта : Постоянный
Общий поток : 320 Кбит/сек
Альбом : Книга Мирдада
Трек : Колесо времени
Трек/Положение : 08
Исполнитель : Nikosho
Композитор : Михаил Наими
Дата записи : 2013
Библиотека кодирования : LAME3.99r
Аудио
Формат : MPEG Audio
Версия формата : Version 1
Профиль формата : Layer 3
Режим : Joint stereo
Продолжительность : 39 м.
Вид битрейта : Постоянный
Битрейт : 320 Кбит/сек
Каналы : 2 канала
Частота : 44,1 КГц
Метод сжатия : С потерями
Размер потока : 91,0 Мбайт (100%)
Библиотека кодирования : LAME3.99r
Настройки программы : -m j -V 4 -q 3 -lowpass 20.5
Общее
Полное имя : D:\MEDIA\Audio\Книга Мирдада\09. О человеке обновленном.mp3
Формат : MPEG Audio
Размер файла : 152 Мбайт
Продолжительность : 1 ч. 6 м.
Режим общего битрейта : Постоянный
Общий поток : 320 Кбит/сек
Альбом : Книга Мирдада
Трек : О человеке обновленном
Трек/Положение : 09
Исполнитель : Nikosho
Композитор : Михаил Наими
Дата записи : 2013
Библиотека кодирования : LAME3.99r
Аудио
Формат : MPEG Audio
Версия формата : Version 1
Профиль формата : Layer 3
Режим : Joint stereo
Продолжительность : 1 ч. 6 м.
Вид битрейта : Постоянный
Битрейт : 320 Кбит/сек
Каналы : 2 канала
Частота : 44,1 КГц
Метод сжатия : С потерями
Размер потока : 152 Мбайт (100%)
Библиотека кодирования : LAME3.99r
Настройки программы : -m j -V 4 -q 3 -lowpass 20.5
Общее
Полное имя : D:\MEDIA\Audio\Книга Мирдада\10. О власти.mp3
Формат : MPEG Audio
Размер файла : 74,8 Мбайт
Продолжительность : 32 м.
Режим общего битрейта : Постоянный
Общий поток : 320 Кбит/сек
Альбом : Книга Мирдада
Трек : О власти
Трек/Положение : 10
Исполнитель : Nikosho
Композитор : Михаил Наими
Дата записи : 2013
Библиотека кодирования : LAME3.99r
Аудио
Формат : MPEG Audio
Версия формата : Version 1
Профиль формата : Layer 3
Режим : Joint stereo
Продолжительность : 32 м.
Вид битрейта : Постоянный
Битрейт : 320 Кбит/сек
Каналы : 2 канала
Частота : 44,1 КГц
Метод сжатия : С потерями
Размер потока : 74,8 Мбайт (100%)
Библиотека кодирования : LAME3.99r
Настройки программы : -m j -V 4 -q 3 -lowpass 20.5
Общее
Полное имя : D:\MEDIA\Audio\Книга Мирдада\11. Возвращение Мирдада.mp3
Формат : MPEG Audio
Размер файла : 62,5 Мбайт
Продолжительность : 27 м.
Режим общего битрейта : Постоянный
Общий поток : 320 Кбит/сек
Альбом : Книга Мирдада
Трек : Возвращение Мирдада
Трек/Положение : 11
Исполнитель : Nikosho
Композитор : Михаил Наими
Дата записи : 2013
Библиотека кодирования : LAME3.99r
Аудио
Формат : MPEG Audio
Версия формата : Version 1
Профиль формата : Layer 3
Режим : Joint stereo
Продолжительность : 27 м.
Вид битрейта : Постоянный
Битрейт : 320 Кбит/сек
Каналы : 2 канала
Частота : 44,1 КГц
Метод сжатия : С потерями
Размер потока : 62,5 Мбайт (100%)
Библиотека кодирования : LAME3.99r
Настройки программы : -m j -V 4 -q 3 -lowpass 20.5
Общее
Полное имя : D:\MEDIA\Audio\Книга Мирдада\12. Великая Ностальгия.mp3
Формат : MPEG Audio
Размер файла : 83,4 Мбайт
Продолжительность : 36 м.
Режим общего битрейта : Постоянный
Общий поток : 320 Кбит/сек
Альбом : Книга Мирдада
Трек : Великая Ностальгия
Трек/Положение : 12
Исполнитель : Nikosho
Композитор : Михаил Наими
Дата записи : 2013
Библиотека кодирования : LAME3.99r
Аудио
Формат : MPEG Audio
Версия формата : Version 1
Профиль формата : Layer 3
Режим : Joint stereo
Продолжительность : 36 м.
Вид битрейта : Постоянный
Битрейт : 320 Кбит/сек
Каналы : 2 канала
Частота : 44,1 КГц
Метод сжатия : С потерями
Размер потока : 83,4 Мбайт (100%)
Библиотека кодирования : LAME3.99r
Настройки программы : -m j -V 4 -q 3 -lowpass 20.5
Общее
Полное имя : D:\MEDIA\Audio\Книга Мирдада\13. О несравненная певица ночь.mp3
Формат : MPEG Audio
Размер файла : 82,6 Мбайт
Продолжительность : 36 м.
Режим общего битрейта : Постоянный
Общий поток : 320 Кбит/сек
Альбом : Книга Мирдада
Трек : О несравненная певица ночь
Трек/Положение : 13
Исполнитель : Nikosho
Композитор : Михаил Наими
Дата записи : 2013
Библиотека кодирования : LAME3.99r
Аудио
Формат : MPEG Audio
Версия формата : Version 1
Профиль формата : Layer 3
Режим : Joint stereo
Продолжительность : 36 м.
Вид битрейта : Постоянный
Битрейт : 320 Кбит/сек
Каналы : 2 канала
Частота : 44,1 КГц
Метод сжатия : С потерями
Размер потока : 82,6 Мбайт (100%)
Библиотека кодирования : LAME3.99r
Настройки программы : -m j -V 4 -q 3 -lowpass 20.5
Общее
Полное имя : D:\MEDIA\Audio\Книга Мирдада\14. Искры на пути к Богу.mp3
Формат : MPEG Audio
Размер файла : 116 Мбайт
Продолжительность : 50 м.
Режим общего битрейта : Постоянный
Общий поток : 320 Кбит/сек
Альбом : Книга Мирдада
Трек : Искры на пути к Богу
Трек/Положение : 14
Исполнитель : Nikosho
Композитор : Михаил Наими
Дата записи : 2013
Библиотека кодирования : LAME3.99r
Аудио
Формат : MPEG Audio
Версия формата : Version 1
Профиль формата : Layer 3
Режим : Joint stereo
Продолжительность : 50 м.
Вид битрейта : Постоянный
Битрейт : 320 Кбит/сек
Каналы : 2 канала
Частота : 44,1 КГц
Метод сжатия : С потерями
Размер потока : 116 Мбайт (100%)
Библиотека кодирования : LAME3.99r
Настройки программы : -m j -V 4 -q 3 -lowpass 20.5
Общее
Полное имя : D:\MEDIA\Audio\Книга Мирдада\Cover.jpg
Формат : JPEG
Размер файла : 31,9 Кбайт
Изображения
Формат : JPEG
Ширина : 370 пикселей
Высота : 500 пикселей
Цветовое пространство : YUV
Субдискретизация насыщенности : 4:2:0
Битовая глубина : 8 бит
Метод сжатия : С потерями
Размер потока : 31,9 Кбайт (100%)
Время раздачи: С 08:00 до 24:00
Other forum [Profile] [PM]
Similar theme
Forum Topic Author Torrent Replies Last Post
./templates/default/images/folder_dl.gif Архив Михаил Васильевич Ломоносов | Полное собрание сочинений в 11 томах [1950-1983] [DJVU] Omen
1 | 0

0 | 1890

3

2011-09-01 15:34
Omen Latest
./templates/default/images/folder_dl.gif Сатира, Юмор Михаил Жванецкий | Собрание произведений в одном томе (2015) [FB2] Omen
1 | 0

0 | 1595

14

2015-07-18 14:19
Omen Latest
./templates/default/images/folder_dl.gif Компьютерная литература Михаил Флёнов | Linux глазами хакера (5-е изд.) (2019) [PDF] }{@R0N
1 | 0

0 | 412

1

2019-03-17 22:39
}{@R0N Latest
Display posts from previous:    
Reply to topic

The time now is: Today 12:38

All times are GMT + 3 Hours



You cannot post new topics in this forum
You cannot reply to topics in this forum
You cannot edit your posts in this forum
You cannot delete your posts in this forum
You cannot vote in polls in this forum
You cannot attach files in this forum
You cannot download files in this forum