Today is a free download without charge Download

Секс и больше ничего / Csak szex és más semmi (Кристина Года) [2005 г., комедия, BDRip720p]

Reply to topic
 
Author
Message

Delia ®

Gender:

Longevity: 9 years 6 months

Posts: 1821

Торрент-статистика

Post 18-Aug-2011 01:52

[Quote]

Секс и больше ничегоCsak szex és más semmi
Год выпуска: 2005
Страна: Венгрия
Жанр: комедия
Продолжительность: 01.37.19
Перевод: Профессиональный (многоголосый, закадровый)
Режиссер: Кристина Года
Продюссер: Gábor Kálomista, Mentes Endre, Габор Хеллер,
Сценарий: Réka Divinyi, Кристина Года, Габор Хеллер
Бюджет: $1 100 000
Премьера в мире: 8 декабря 2005
В ролях: Джудит Шелл, Ката Добо, Шандор Чани, Карой Гестеши, Adél Jordán, Золтан Сересс, Золтан Ратоти, Antal Czapkó, László Sinkó, Марта Мартин
Описание: 33-летний драматург Дора решила, что мужчин с нее хватит. Теперь она хочет ребенка и начинает поиски потенциального «донора». Ее планы просты: она выберет подходящего человека, проведет с ним ночь и больше никогда его не увидит. Но кандидаты производят гнетущее впечатление.Тем временем в театре появляется очаровательный новый актер Тамаш, а потом и композитор Петер, но долгое время кандидатом номер один остается миловидный турок Али. По мере приближения премьеры смятение в душеДоры растет: кто же выиграет — Петер, Али, Тамаш? Или кто-то другой?
Качество: B720pDRip
Формат: MKV
Видео кодек: H.26x-4
Аудио кодек: AC3
Видео: English, 5545 Кбит/сек, 1280*720 (16:9), в 25,000 кадр/сек, AVC ([email protected])
Аудио: Russian, 448 Кбит/сек, 48,0 КГц, 16 бит, 6 канала(ов), AC-3
Аудио:German, 448 Кбит/сек, 48,0 КГц, 16 бит, 6 канала(ов), AC-3
Субтитры:Russian- UTF-8 , English - VobSub

MI:

Общее
Уникальный идентификатор : 220916710312867808300376230982762196513 (0xA63302C136B5C28191B9D35D36396E21)
Полное имя : F:\торрент\Csak szex és más semmi, 2005.BDRip720p.mkv
Формат : Matroska
Размер файла : 4,37 Гбайт
Продолжительность : 1 ч. 37 м.
Общий поток : 6433 Кбит/сек
Дата кодирования : UTC 2011-08-17 21:28:44
Программа кодирования : mkvmerge v4.9.1 ('Ich will') built on Jul 11 2011 23:53:15
Библиотека кодирования : libebml v1.2.1 + libmatroska v1.1.1
Видео
Идентификатор : 1
Формат : AVC
Формат/Информация : Advanced Video Codec
Профиль формата : [email protected]
Параметр CABAC формата : Да
Параметр ReFrames формата : 8 кадры
Идентификатор кодека : V_MPEG4/ISO/AVC
Продолжительность : 1 ч. 37 м.
Битрейт : 5545 Кбит/сек
Ширина : 1280 пикс.
Высота : 720 пикс.
Соотношение сторон : 16:9
Частота кадров : 25,000 кадр/сек
Цветовое пространство : YUV
Подвыборка цветности : 4:2:0
Битовая глубина : 8 бит
Тип развёртки : Прогрессивная
Бит/(Пиксели*Кадры) : 0.241
Размер потока : 3,68 Гбайт (84%)
Библиотека кодирования : x264 core 116 r2057 0ba8a9c
Настройки программы : cabac=1 / ref=8 / deblock=1:-3:-3 / analyse=0x3:0x113 / me=umh / subme=9 / psy=1 / psy_rd=1.00:0.25 / mixed_ref=1 / me_range=48 / chroma_me=1 / trellis=2 / 8x8dct=1 / cqm=0 / deadzone=21,11 / fast_pskip=0 / chroma_qp_offset=-4 / threads=6 / sliced_threads=0 / nr=0 / decimate=1 / interlaced=0 / bluray_compat=0 / constrained_intra=0 / bframes=6 / b_pyramid=2 / b_adapt=2 / b_bias=0 / direct=3 / weightb=1 / open_gop=0 / weightp=2 / keyint=250 / keyint_min=23 / scenecut=40 / intra_refresh=0 / rc_lookahead=60 / rc=2pass / mbtree=1 / bitrate=5545 / ratetol=1.0 / qcomp=0.80 / qpmin=10 / qpmax=51 / qpstep=4 / cplxblur=20.0 / qblur=0.5 / ip_ratio=1.40 / aq=1:1.00
Язык : English
Аудио #1
Идентификатор : 2
Формат : AC-3
Формат/Информация : Audio Coding 3
Расширение режима : CM (complete main)
Идентификатор кодека : A_AC3
Продолжительность : 1 ч. 37 м.
Вид битрейта : Постоянный
Битрейт : 448 Кбит/сек
Канал(ы) : 6 канала(ов)
Расположение каналов : Front: L C R, Side: L R, LFE
Частота : 48,0 КГц
Битовая глубина : 16 бит
Метод сжатия : С потерями
Задержка видео : 19 мс.
Размер потока : 312 Мбайт (7%)
Язык : Russian
Аудио #2
Идентификатор : 3
Формат : AC-3
Формат/Информация : Audio Coding 3
Расширение режима : CM (complete main)
Идентификатор кодека : A_AC3
Продолжительность : 1 ч. 37 м.
Вид битрейта : Постоянный
Битрейт : 448 Кбит/сек
Канал(ы) : 6 канала(ов)
Расположение каналов : Front: L C R, Side: L R, LFE
Частота : 48,0 КГц
Битовая глубина : 16 бит
Метод сжатия : С потерями
Размер потока : 312 Мбайт (7%)
Язык : German
Текст #1
Идентификатор : 4
Формат : UTF-8
Идентификатор кодека : S_TEXT/UTF8
Идентификатор кодека/Информация : UTF-8 Plain Text
Язык : Russian
Текст #2
Идентификатор : 5
Формат : VobSub
Режим смешивания : zlib
Идентификатор кодека : S_VOBSUB
Идентификатор кодека/Информация : The same subtitle format used on DVDs
Язык : English
Меню
00:00:00.000 : en:00:00:00.000
00:02:01.720 : en:00:02:01.720
00:03:42.040 : en:00:03:42.040
00:07:08.680 : en:00:07:08.680
00:11:14.440 : en:00:11:14.440
00:15:45.200 : en:00:15:45.200
00:20:28.040 : en:00:20:28.040
00:23:59.920 : en:00:23:59.920
00:28:07.960 : en:00:28:07.960
00:31:46.920 : en:00:31:46.920
00:37:53.800 : en:00:37:53.800
00:44:34.160 : en:00:44:34.160
00:47:54.840 : en:00:47:54.840
00:51:57.400 : en:00:51:57.400
00:57:39.560 : en:00:57:39.560
01:02:44.240 : en:01:02:44.240
01:11:44.240 : en:01:11:44.240
01:16:28.080 : en:01:16:28.080
01:18:41.440 : en:01:18:41.440
01:23:39.880 : en:01:23:39.880
01:28:25.240 : en:01:28:25.240
01:31:16.200 : en:01:31:16.200

Скриншоты

               

_________________
Человек – это канат, натянутый между животным и сверхчеловеком, – канат над пропастью.
В человеке ценно то, что он мост, а не цель. Фридрих Ницше
Other forum [Profile] [PM]
Display posts from previous:    
Reply to topic

The time now is: Today 19:55

All times are GMT + 3 Hours



You cannot post new topics in this forum
You cannot reply to topics in this forum
You cannot edit your posts in this forum
You cannot delete your posts in this forum
You cannot vote in polls in this forum
You cannot attach files in this forum
You cannot download files in this forum