Today is a free download without charge Download

Bad Company • The Tonight Show With Jay Leno [2013, Rock, HDTVRip 1080i]

Reply to topic
 
Author
Message

Omen ®

Longevity: 8 years 3 months

Posts: 181087

Торрент-статистика

Post 11-Jun-2013 13:19

[Quote]


The Tonight Show


Жанр: Rock
Продолжительность: 00:04:57
Год выпуска: 2013-03-01
Качество: HDTVRip 1080i
Контейнер: MKV
Видео кодек: H.264
Аудио кодек: AC3
Видео: MPEG4 Video (H264) 1920x1080 29.970 fps 13.1 Mbps
Аудио: Dolby AC3 48000Hz 6ch

Отчёт MediaInfo / BDInfo

GeneralUnique ID : 249013746329346634253464200244684552535 (0xBB564D957831321482908161C9267957)Complete name : E:\Bad Company 2013 06-10 The Tonight Show Bad Company.mkvFormat : MatroskaFormat version : Version 2File size : 489 MiBDuration : 4mn 57sOverall bit rate mode : VariableOverall bit rate : 13.8 MbpsEncoded date : UTC 2013-06-11 06:04:51Writing application : mkvmerge v6.2.0 ('Promised Land') built on Apr 28 2013 12:22:01Writing library : libebml v1.3.0 + libmatroska v1.4.0
VideoID : 2Format : AVCFormat/Info : Advanced Video CodecFormat profile : [email protected] settings, CABAC : YesFormat settings, ReFrames : 4 framesCodec ID : V_MPEG4/ISO/AVCDuration : 4mn 57sBit rate mode : VariableBit rate : 13.1 MbpsMaximum bit rate : 19.2 MbpsWidth : 1 920 pixelsHeight : 1 080 pixelsDisplay aspect ratio : 16:9Frame rate mode : ConstantFrame rate : 29.940 fpsOriginal frame rate : 29.970 fpsColor space : YUVChroma subsampling : 4:2:0Bit depth : 8 bitsScan type : InterlacedBits/(Pixel*Frame) : 0.212Stream size : 466 MiB (95%)Default : YesForced : No
AudioID : 1Format : AC-3Format/Info : Audio Coding 3Mode extension : CM (complete main)Format settings, Endianness : BigCodec ID : A_AC3Duration : 4mn 57sBit rate mode : ConstantBit rate : 384 KbpsChannel(s) : 6 channelsChannel positions : Front: L C R, Side: L R, LFESampling rate : 48.0 KHzBit depth : 16 bitsCompression mode : LossyStream size : 13.6 MiB (3%)Default : YesForced
Other forum [Profile] [PM]
Display posts from previous:    
Reply to topic

The time now is: Today 21:47

All times are GMT + 3 Hours



You cannot post new topics in this forum
You cannot reply to topics in this forum
You cannot edit your posts in this forum
You cannot delete your posts in this forum
You cannot vote in polls in this forum
You cannot attach files in this forum
You cannot download files in this forum