Today is a free download without charge Download

Мистер правильный / Making Mr. Right (Сьюзен Сайделман / Susan Seidelman) [1987, США, комедия, мелодрама, HDTV 1080i] DVO (НТВ+) + Sub Eng + Original Eng

Reply to topic
 
Author
Message

Omen ®

Longevity: 8 years 5 months

Posts: 181087

Торрент-статистика

Post 11-Jun-2013 09:15

[Quote]

Мистер правильный / Making Mr. Right
Страна: США
Студия: Barry & Enright Productions, Orion Pictures
Жанр: комедия, мелодрама
Год выпуска: 1987
Продолжительность: 01:34:13
Перевод: Профессиональный (двухголосый закадровый) НТВ+
Cубтитры: английские
Оригинальная аудиодорожка: английский
Режиссер: Сьюзен Сайделман / Susan Seidelman
В ролях: Джон Малкович, Энн Магнусон, Гленн Хедли, Бен Мастерс, Лори Меткаф, Полли Берген, Харш Найяр, Харт Бокнер, Сьюзэн Берман, Полли Дрэйпер
Описание: Роман между андроидом Улиссисом (Джон Малкович) и "консультантом по имиджу" Фрэнки Стоун (Энн Магнусон). Ее мир - это Мелроуз Авеню в стиле Майами, где она занимается публицистской. Короче, все поселились в одном месте - андроид и его создатель доктор Джефф Питерс (Малкович в обеих ролях), чтобы решить, как бы повыгодней продать свое изобретение Американскому народу, пока его не послали в космос.

Доп. информация: За оригинальную дорогу спасибо sl_petrovich
Тип релиза: HDTV 1080i
Контейнер: MKV
Видео: AVC 1920x1080 (16:9) 25.0fps Bit rate 5750Kbps
Аудио 1: AC3 48000Hz 2ch 192 Kbps rus
Аудио 2: AC3 48000Hz 2ch 192 Kbps eng

MediaInfo

General
Complete name : E:\torrent\Мистер правильный .mkv
Format : Matroska
File size : 4.12 GiB
Duration : 1h 34mn
Overall bit rate : 6 259 Kbps
Encoded date : UTC 2013-06-11 00:03:30
Writing application : mkvmerge v5.7.0 ('The Whirlwind') built on Jul 8 2012 20:08:51
Writing library : libebml v1.2.3 + libmatroska v1.3.0
Video
ID : 1
Format : AVC
Format/Info : Advanced Video Codec
Format profile : [email protected]
Format settings, CABAC : Yes
Format settings, ReFrames : 3 frames
Format settings, GOP : M=1, N=64
Muxing mode : Container [email protected]
Codec ID : V_MPEG4/ISO/AVC
Duration : 1h 34mn
Bit rate : 5 750 Kbps
Width : 1 920 pixels
Height : 1 080 pixels
Display aspect ratio : 16:9
Frame rate : 50.000 fps
Original frame rate : 25.000 fps
Standard : Component
Color space : YUV
Chroma subsampling : 4:2:0
Bit depth : 8 bits
Scan type : Interlaced
Scan order : Top Field First
Bits/(Pixel*Frame) : 0.055
Stream size : 3.78 GiB (92%)
Title : Making Mr. Right_1987
Color primaries : BT.709-5, BT.1361, IEC 61966-2-4, SMPTE RP177
Transfer characteristics : BT.709-5, BT.1361
Matrix coefficients : BT.709-5, BT.1361, IEC 61966-2-4 709, SMPTE RP177
Audio #1
ID : 2
Format : AC-3
Format/Info : Audio Coding 3
Mode extension : CM (complete main)
Codec ID : A_AC3
Duration : 1h 34mn
Bit rate mode : Constant
Bit rate : 192 Kbps
Channel(s) : 2 channels
Channel positions : Front: L R
Sampling rate : 48.0 KHz
Bit depth : 16 bits
Stream size : 129 MiB (3%)
Title : Making Mr. Right_1987_AC3_DVO_NTV+
Language : Russian
Audio #2
ID : 3
Format : AC-3
Format/Info : Audio Coding 3
Mode extension : CM (complete main)
Codec ID : A_AC3
Duration : 1h 34mn
Bit rate mode : Constant
Bit rate : 192 Kbps
Channel(s) : 2 channels
Channel positions : Front: L R
Sampling rate : 48.0 KHz
Bit depth : 16 bits
Stream size : 129 MiB (3%)
Title : Making Mr. Right_1987_AC3_original_eng
Text
ID : 4
Format : UTF-8
Codec ID : S_TEXT/UTF8
Codec ID/Info : UTF-8 Plain Text
Title : Making Mr. Right_1987_sub_eng

Скриншот с названием фильма

Скриншоты

Other forum [Profile] [PM]
Display posts from previous:    
Reply to topic

The time now is: Today 10:30

All times are GMT + 3 Hours



You cannot post new topics in this forum
You cannot reply to topics in this forum
You cannot edit your posts in this forum
You cannot delete your posts in this forum
You cannot vote in polls in this forum
You cannot attach files in this forum
You cannot download files in this forum