Today is a free download without charge Download

Scorpions - Acoustica [2001, Hard Rock, DVDRip-AVC]

Reply to topic
 
Author
Message

Omen ®

Longevity: 8 years 4 months

Posts: 181087

Торрент-статистика

Post 17-Aug-2011 22:07

[Quote]

Scorpions - Acoustica
Страна: US
Лейбл: Warner Music
Жанр: Hard Rock
Продолжительность: 01:53:04
Год выпуска: 2001-Описание: акустический концерт Scorpions, который состоит из записей трёх концертов, проходивших за стенами Португальского монастыря в Лиссабоне 8, 9 и 10 февраля 2001 года-Навигация по трекам: есть
Качество: DVDRip-AVC
Контейнер: MKV
Видео кодек: x264
Видео: AVC [email protected] (16:9) 25 fps, ~2720 Kbps, 0,27 bit/pixel
Аудио #1: AC3 2ch 48kHz 256Kbps
Аудио #2: DTS 6ch 48kHz 755Kbps
Аудио #3: FLAC L5, 2ch 48 kHz, ~981 Kbps, 16-bit , lossless-Доп. информация: Великолепный концерт превосходной команды, lossless дорога прилагается. Enjoy-Скриншоты:
       
-

Еще скриншоты

           
-

Setlist

01. Loving You Sunday Morning
02. Is There Anybody There
03. The Zoo
04. Always Somewhere
05. Life Is Too Short
06. Holiday
07. You & I
08. When Love Kills Love
09. Tease Me, Please Me
10. Dust In The Wind
11. Send Me An Angel
12. Under The Same Sun
13. Rhythm Of Love
14. Back To You
15. Catch Your Train
16. I Wanted To Cry (But The Tears Wouldn't Come)
17. Hurricane 2001
18. Wind Of Change
19. Love Of My Life
20. Drive
21. Still Loving You

Lineup

Klaus Meine - Vocals
Rudolf Schenker - Guitar
Matthias Jabs - Guitar
James Kottak - Drums
Ralph Rieckermann - Bass

Guests

Christian Kolonovits - Piano
Johan Daansen - Guitar
Mario Argandona - Percussion
Ariana Arcu - Cello
-

MediaInfo | x264

x264

--[NoImage] avs [info]: 698x572p 4576:3141 @ 25/1 fps (cfr)
--[NoImage] x264 [warning]: --psnr used with psy on: results will be invalid!
--[NoImage] x264 [warning]: --tune psnr should be used if attempting to benchmark psnr!
--[NoImage] x264 [info]: using SAR=4576/3141
--[NoImage] x264 [info]: using cpu capabilities: MMX2 SSE2Fast FastShuffle SSEMisalign LZCNT
--[NoImage] x264 [info]: profile High, level 4.1
--[NoImage]
--[NoImage] x264 [info]: frame I:1853 Avg QP:19.96 size: 49145 PSNR Mean Y:44.64 U:47.85 V:47.86 Avg:45.39 Global:44.89
--[NoImage] x264 [info]: frame P:37210 Avg QP:22.99 size: 21977 PSNR Mean Y:42.67 U:47.26 V:47.24 Avg:43.49 Global:42.38
--[NoImage] x264 [info]: frame B:130537 Avg QP:24.23 size: 10706 PSNR Mean Y:42.13 U:46.45 V:46.50 Avg:42.98 Global:42.06
--[NoImage] x264 [info]: consecutive B-frames: 2.0% 1.5% 6.8% 30.6% 18.2% 37.4% 2.6% 0.7% 0.2%
--[NoImage] x264 [info]: mb I I16..4: 8.5% 65.6% 25.9%
--[NoImage] x264 [info]: mb P I16..4: 4.7% 16.5% 3.3% P16..4: 46.7% 18.8% 4.4% 0.5% 0.2% skip: 5.0%
--[NoImage] x264 [info]: mb B I16..4: 0.3% 1.8% 0.5% B16..8: 35.5% 10.2% 3.0% direct:13.7% skip:34.9% L0:34.7% L1:40.2% BI:25.1%
--[NoImage] x264 [info]: 8x8 transform intra:67.2% inter:60.7%
--[NoImage] x264 [info]: coded y,uvDC,uvAC intra: 76.4% 88.8% 69.3% inter: 32.0% 43.8% 16.8%
--[NoImage] x264 [info]: i16 v,h,dc,p: 49% 12% 11% 28%
--[NoImage] x264 [info]: i8 v,h,dc,ddl,ddr,vr,hd,vl,hu: 17% 5% 6% 8% 12% 17% 10% 15% 10%
--[NoImage] x264 [info]: i4 v,h,dc,ddl,ddr,vr,hd,vl,hu: 16% 5% 4% 9% 14% 17% 10% 14% 11%
--[NoImage] x264 [info]: i8c dc,h,v,p: 31% 16% 30% 23%
--[NoImage] x264 [info]: Weighted P-Frames: Y:17.4% UV:15.3%
--[NoImage] x264 [info]: ref P L0: 51.1% 10.9% 19.3% 6.2% 4.9% 3.6% 3.4% 0.7% 0.1%
--[NoImage] x264 [info]: ref B L0: 83.5% 9.7% 3.3% 2.0% 0.9% 0.5%
--[NoImage] x264 [info]: ref B L1: 95.5% 4.5%
--[NoImage] x264 [info]: SSIM Mean Y:0.9787017 (16.717db)
--[NoImage] x264 [info]: PSNR Mean Y:42.279 U:46.644 V:46.673 Avg:43.120 Global:42.150 kb/s:2719.76
--[NoImage] encoded 169600 frames, 7.49 fps, 2719.76 kb/s

MediaInfo

General
Complete name : E:\...\Scorpions.Acoustica.2001.DVDRip.x264.AC3.DTS-E76.mkv
Format : Matroska
File size : 2.95 GiB
Duration : 1h 53mn
Overall bit rate : 3 733 Kbps
Encoded date : UTC 2011-06-07 08:18:57
Writing application : mkvmerge v4.0.0 ('The Stars were mine') сборка от Jun 6 2010 16:18:42
Writing library : libebml v1.0.0 + libmatroska v1.0.0
Video
ID : 1
Format : AVC
Format/Info : Advanced Video Codec
Format profile : [email protected]
Format settings, CABAC : Yes
Format settings, ReFrames : 7 frames
Codec ID : V_MPEG4/ISO/AVC
Duration : 1h 53mn
Bit rate : 2 648 Kbps
Width : 698 pixels
Height : 572 pixels
Display aspect ratio : 16:9
Original display aspect ratio : 16:9
Frame rate : 25.000 fps
Color space : YUV
Chroma subsampling : 4:2:0
Bit depth : 8 bits
Scan type : Progressive
Bits/(Pixel*Frame) : 0.265
Stream size : 2.09 GiB (71%)
Writing library : x264 core 115 r1947 b5a8ad7
Encoding settings : cabac=1 / ref=7 / deblock=1:-2:-1 / analyse=0x3:0x133 / me=umh / subme=10 / psy=1 / psy_rd=1.00:0.10 / mixed_ref=1 / me_range=32 / chroma_me=1 / trellis=2 / 8x8dct=1 / cqm=0 / deadzone=21,11 / fast_pskip=0 / chroma_qp_offset=-3 / threads=6 / sliced_threads=0 / nr=0 / decimate=0 / interlaced=0 / bluray_compat=0 / constrained_intra=0 / bframes=8 / b_pyramid=2 / b_adapt=2 / b_bias=0 / direct=1 / weightb=1 / open_gop=0 / weightp=2 / keyint=250 / keyint_min=25 / scenecut=40 / intra_refresh=0 / rc_lookahead=40 / rc=crf / mbtree=0 / crf=20.3 / qcomp=0.65 / qpmin=0 / qpmax=69 / qpstep=4 / vbv_maxrate=17500 / vbv_bufsize=14000 / crf_max=0.0 / nal_hrd=none / ip_ratio=1.35 / pb_ratio=1.10 / aq=1:0.70 / zones=166675,169599,q=35
Language : English
Audio #1
ID : 2
Format : AC-3
Format/Info : Audio Coding 3
Mode extension : CM (complete main)
Codec ID : A_AC3
Duration : 1h 53mn
Bit rate mode : Constant
Bit rate : 256 Kbps
Channel(s) : 2 channels
Channel positions : Front: L R
Sampling rate : 48.0 KHz
Bit depth : 16 bits
Compression mode : Lossy
Stream size : 207 MiB (7%)
Title : AC3 2.0 256 Kbps
Language : English
Audio #2
ID : 3
Format : DTS
Format/Info : Digital Theater Systems
Codec ID : A_DTS
Duration : 1h 53mn
Bit rate mode : Constant
Bit rate : 755 Kbps
Channel(s) : 6 channels
Channel positions : Front: L C R, Side: L R, LFE
Sampling rate : 48.0 KHz
Bit depth : 24 bits
Compression mode : Lossy
Stream size : 610 MiB (20%)
Title : DTS 5.1 755 Kbps
Language : English
Menu
00:00:00.000 : 01 Loving You Sunday Morning
00:05:29.000 : 02 Is There Anybody There
00:10:05.080 : 03 The Zoo
00:17:24.000 : 04 Always Somewhere
00:22:50.000 : 05 Life is Too Short
00:29:20.000 : 06 Holiday
00:35:24.800 : 07 You and I
00:40:49.000 : 08 When Love Kills Love
00:45:57.840 : 09 Tease Me, Please Me
00:51:21.360 : 10 Dust in the Wind
00:55:27.000 : 11 Send Me an Angel
01:01:17.640 : 12 Under the Same Sun
01:06:53.120 : 13 Rhythm of Love
01:12:07.000 : 14 Back to You
01:17:00.120 : 15 Catch Your Train
01:20:59.000 : 16 I Wanted to Cry
01:25:00.280 : 17 Hurricane 2001
01:29:42.480 : 18 Wind of Change
01:36:32.360 : 19 Love of My Life
01:39:35.640 : 20 Drive
01:43:48.000 : 21 Still Loving You


Last edited by Omen on 2012-01-23 11:57; edited 3 times in total
Other forum [Profile] [PM]

Nugeiro

Gender:

Longevity: 9 years

Posts: 1981

Location: Украина, Шостка

Торрент-статистика

Post 17-Aug-2011 22:53 (after 46 minutes)

[Quote]

Уххх, спасибо. Музычка Музычка Музычка

_________________
Other forum [Profile] [PM]

yojic 01

Longevity: 8 years 1 month

Posts: 1

Торрент-статистика

Post 08-Nov-2013 19:20 (after 2 years 2 months)

[Quote]

Великолепный концерт!
Other forum [Profile] [PM]
Similar theme
Forum Topic Author Torrent Replies Last Post
./templates/default/images/folder_dl.gif Rock (Hard Rock) Scorpions - Дискография (1972-2010) [MP3|320 kbps] SCORPION
0 | 1

2 | 5987

24

2013-12-03 19:04
anlhyxa3030 Latest
Display posts from previous:    
Reply to topic

The time now is: Today 22:34

All times are GMT + 3 Hours



You cannot post new topics in this forum
You cannot reply to topics in this forum
You cannot edit your posts in this forum
You cannot delete your posts in this forum
You cannot vote in polls in this forum
You cannot attach files in this forum
You cannot download files in this forum