Today is a free download without charge Download

Рок над Волгой (Rammstein) [2013, Industrial, HDCamRip]

Reply to topic
 
Author
Message

Omen ®

Longevity: 8 years 4 months

Posts: 181087

Торрент-статистика

Post 11-Jun-2013 09:15

[Quote]

Рок над Волгой (Rammstein)
Жанр: Industrial
Продолжительность: 01:34:34
Год выпуска: 2013
Описание: Хедлайнером крупнейшего в Европе фестиваля "Рок над Волгой" в 2013 году станет немецкая группа Rammstein. "Wir Halten Das Tempo" - "Мы держим темп" - под этим слоганом пройдет тур группы, которая даст этим летом ограниченное количество выступлений на лучших европейских фестивалях. Rammstein будут закрывать "Рок над Волгой" полноценным концертным сетом и привезут в Россию свое знаменитое сценическое шоу. За последние 2 года более 1.3 млн человек по всему миру были потрясены живым шоу Rammstein.
В 2013 машина Rammstein прикатит в Россию - это будет очень жаркое лето!
Треклист:
1. Ich tu dir weh
2. Wollt Ihr Das Bett In Flammen Sehen
3. Keine lust
4. Sehnsucht
5. Asche Zu Asche
6. Feuer Frei!
7. Mein teil
8. Ohne dich
9. Wiener Blut
10. Du Riechst So Gut
11. Benzin
12. Links 2 3 4
13. Du Hast
14. Rammstein
15. Buck Dich
16. Ich Will
17. Mein Herz Brennt
18. Sonne
19. Pussy
Качество: HDCamRip
Контейнер: MP4
Видео кодек: VC-1
Аудио кодек: AAC
Видео: MPEG-4, 1920*1080, 5 967 Kbps, 25.000 fps
Аудио: AAC, 192 Kbps, 44.1 KHz, 2 channels,

Отчёт MediaInfo / BDInfo

GeneralComplete name : C:\Users\Артур Pitersky\Desktop\Rammstein Полный концерт (Рок над Волгой 2013)_(1080p).mp4Format : MPEG-4Format profile : Base Media / Version 2Codec ID : mp42File size : 4.07 GiBDuration : 1h 34mnOverall bit rate mode : VariableOverall bit rate : 6 162 KbpsEncoded date : UTC 2013-06-08 17:24:40Tagged date : UTC 2013-06-08 17:24:40gsst : 0gstd : 5673191gssd : BB24CFFC5HH1370899402642681gshh : r2---sn-xaxjugvjvh-gv8e.c.youtube.com
VideoID : 1Format : AVCFormat/Info : Advanced Video CodecFormat profile : [email protected] settings, CABAC : YesFormat settings, ReFrames : 1 frameFormat settings, GOP : M=1, N=50Codec ID : avc1Codec ID/Info : Advanced Video CodingDuration : 1h 34mnBit rate : 5 967 KbpsMaximum bit rate : 12.3 MbpsWidth : 1 920 pixelsHeight : 1 080 pixelsDisplay aspect ratio : 16:9Frame rate mode : ConstantFrame rate : 25.000 fpsColor space : YUVChroma subsampling : 4:2:0Bit depth : 8 bitsScan type : ProgressiveBits/(Pixel*Frame) : 0.115Stream size : 3.94 GiB (97%)Tagged date : UTC 2013-06-08 17:49:51
AudioID : 2Format : AACFormat/Info : Advanced Audio CodecFormat profile : LCCodec ID : 40Duration : 1h 34mnBit rate mode : VariableBit rate : 192 KbpsMaximum bit rate : 202 KbpsChannel(s) : 2 channelsChannel positions : Front: L RSampling rate : 44.1 KHzCompression mode : LossyStream size : 130 MiB (3%)Title : IsoMedia File Produced by Google, 5-11-2011Encoded date : UTC 2013-06-08 17:40:03Tagged date : UTC 2013-06-08 17:49:51

Скриншоты




Other forum [Profile] [PM]

RUGUI

Gender:

Longevity: 9 years

Posts: 451

Торрент-статистика

Post 11-Jun-2013 12:38 (after 3 hours)

[Quote]

У меня сестра там была, говорит 700 000 человек туда приехало.
Other forum [Profile] [PM]
Display posts from previous:    
Reply to topic

The time now is: Today 04:55

All times are GMT + 3 Hours



You cannot post new topics in this forum
You cannot reply to topics in this forum
You cannot edit your posts in this forum
You cannot delete your posts in this forum
You cannot vote in polls in this forum
You cannot attach files in this forum
You cannot download files in this forum