Today is a free download without charge Download

Зло 2 / V/H/S/2 (Саймон Баррет / Simon Barrett, Джейсон Айзенер / Jason Eisener) [2013, США, Канада, Индонезия, ужасы, триллер, WEB-DL 1080p] VO + Original (Eng) + Sub (eng)

Reply to topic
 
Author
Message

Omen ®

Longevity: 8 years 5 months

Posts: 181087

Торрент-статистика

Post 11-Jun-2013 01:05

[Quote]

Зло 2 : V/H/S/2«Оно пробудилось» Страна: США Канада Индонезия
Год выпуска: 2013
Жанр: ужасы, триллер
Продолжительность: 01:35:42
Перевод:
Одноголосый закадровый [den904] [перевод Janetta]
Cубтитры: отсутствуют
Оригинальная дорожка: Английская-Режиссёр: Саймон Баррет : Simon Barrett, Джейсон Айзенер : Jason Eisener
В главных ролях: Келси Эбботт, Ханна Аль, Рашид Фахри, Албар Ока, Антара Девон, Мари Берт, Саманта Грейси, Коллинз Холт, Ханна Хьюз, Кевин Хант, Эпи Куснандар-Описание: В поисках пропавшего студента, пара частных детективов вламывается в его дом, где они находят коллекцию кассет VHS. Обнаружив ужасающие кадры на каждой из них, они понимают, что за исчезновением студента кроются страшные мотивы…- -Качество: WEB-DL 1080p
Формат: MKV
Видео кодек: AVC
Аудио кодек: АС3
Видео: 1912x1072, 23.976 fps, ~4 883 kbps avg, 0.099 bit/pixel
Аудио #1: 48 kHz, AC3 Dolby Digital, 3/2 (L,C,R,l,r) + LFE ch, ~384 kbps [den904]
Аудио #2: 48 kHz, AC3 Dolby Digital, 3/2 (L,C,R,l,r) + LFE ch, ~384 kbps [ENG]
навигация по главам: 12 глав

скриншоты

MediaInfo

Общее
Уникальный идентификатор : 174388680183035276453192027578928857997 (0x833209C1C0752887A31A9B94E096038D)
Полное имя : D:\Зло 2\V.H.S.2.2013.WEB-DL 1080p.mkv
Формат : Matroska
Версия формата : Version 4 / Version 2
Размер файла : 3,85 Гбайт
Продолжительность : 1 ч. 35 м.
Общий поток : 5766 Кбит/сек
Дата кодирования : UTC 2013-06-10 18:27:53
Программа кодирования : mkvmerge v6.1.0 ('Old Devil') built on Mar 2 2013 14:32:37
Библиотека кодирования : libebml v1.3.0 + libmatroska v1.4.0
Видео
Идентификатор : 1
Формат : AVC
Формат/Информация : Advanced Video Codec
Профиль формата : [email protected]
Параметр CABAC формата : Да
Параметр ReFrames формата : 4 кадра
Идентификатор кодека : V_MPEG4/ISO/AVC
Продолжительность : 1 ч. 35 м.
Битрейт : 4883 Кбит/сек
Ширина : 1912 пикселей
Высота : 1072 пикселя
Соотношение сторон : 16:9
Частота кадров : 23,976 кадра/сек
Цветовое пространство : YUV
Субдискретизация насыщенности : 4:2:0
Битовая глубина : 8 бит
Тип развёртки : Прогрессивная
Бит/(Пиксели*Кадры) : 0.099
Размер потока : 3,26 Гбайт (85%)
Язык : English
Default : Да
Forced : Нет
Основные цвета : BT.709-5, BT.1361, IEC 61966-2-4, SMPTE RP177
Характеристики трансфера : BT.709-5, BT.1361
Коэффициенты матрицы : BT.709-5, BT.1361, IEC 61966-2-4 709, SMPTE RP177
Аудио #1
Идентификатор : 2
Формат : AC-3
Формат/Информация : Audio Coding 3
Расширение режима : CM (complete main)
Идентификатор кодека : A_AC3
Продолжительность : 1 ч. 35 м.
Вид битрейта : Постоянный
Битрейт : 384 Кбит/сек
Каналы : 6 каналов
Расположение каналов : Front: L C R, Side: L R, LFE
Частота : 48,0 КГц
Битовая глубина : 16 бит
Метод сжатия : С потерями
Размер потока : 263 Мбайт (7%)
Заголовок : VO [den904]
Язык : Russian
Default : Да
Forced : Нет
Аудио #2
Идентификатор : 3
Формат : AC-3
Формат/Информация : Audio Coding 3
Расширение режима : CM (complete main)
Идентификатор кодека : A_AC3
Продолжительность : 1 ч. 35 м.
Вид битрейта : Постоянный
Битрейт : 384 Кбит/сек
Каналы : 6 каналов
Расположение каналов : Front: L C R, Side: L R, LFE
Частота : 48,0 КГц
Битовая глубина : 16 бит
Метод сжатия : С потерями
Размер потока : 263 Мбайт (7%)
Заголовок : ENG
Язык : English
Default : Нет
Forced : Нет
Меню
00:00:00.000 : en:Chapter 1
00:08:06.000 : en:Chapter 2
00:16:51.000 : en:Chapter 3
00:26:44.000 : en:Chapter 4
00:36:09.000 : en:Chapter 5
00:41:53.000 : en:Chapter 6
00:48:56.000 : en:Chapter 7
00:55:28.000 : en:Chapter 8
01:13:42.000 : en:Chapter 9
01:18:27.000 : en:Chapter 10
01:26:59.000 : en:Chapter 11
01:30:21.000 : en:Chapter 12
Other forum [Profile] [PM]
Display posts from previous:    
Reply to topic

The time now is: Today 09:32

All times are GMT + 3 Hours



You cannot post new topics in this forum
You cannot reply to topics in this forum
You cannot edit your posts in this forum
You cannot delete your posts in this forum
You cannot vote in polls in this forum
You cannot attach files in this forum
You cannot download files in this forum