Today is a free download without charge Download

Рок на века / Rock of Ages (Адам Шенкман / Adam Shankman) [2012, США, мюзикл, мелодрама, комедия, BDRemux 1080p] [Extended Cut] Dub (вставки VO) + VO (lord666) + Original Eng + Sub (Rus, Eng)

Reply to topic
 
Author
Message

Omen ®

Longevity: 8 years 5 months

Posts: 181087

Торрент-статистика

Post 11-Jun-2013 01:05

[Quote]

Рок на века / Rock of Ages«Nothin' but a good time»Extended Cut Год выпуска: 2012
Страна: США
Жанр: мюзикл, мелодрама, комедия
Продолжительность: 02:16:14
Перевод 1: Профессиональный (дублированный) + вставки VO lord666
Перевод 2: Одноголосый закадровый lord666
Оригинальная аудиодорожка: Английская
Субтитры: Русские (Songs, Full - lord666), английские
Студия: New Line Cinema, Corner Store Entertainment, Material Pictures
Режиссёр: Адам Шенкман / Adam Shankman
В ролях: Джулианна Хаф, Диего Бонета, Расселл Брэнд, Алек Болдуин, Том Круз, Пол Джаматти, Кэтрин Зета-Джонс, Малин Акерман, Мэри Джей Блайдж, Дакота Сэйдж Грант и др.
Описание: Девушка из маленького города приезжает в Голливуд, чтобы покорить его музыкальную сцену, но вопреки мечтам оказывается раздавленной безжалостной Фабрикой Грёз. Но на неё обращает внимание экс-звезда рок-сцены Стэйси Джеккс, а сама девушка, хоть и устраивается работать в стрипклуб, обретает настоящую любовь.
  • Кинопоиск
  • IMDB
  • Blu-ray.com
  • Сэмпл
    Качество: BDRemux 1080p Rock of Ages 2012 1080p Blu-ray AVC DTS-HD MA 5.1-HDChina
    Контейнер: MKV
    Видео кодек: MPEG-4 AVC Video
    Аудио кодек: DTS-HD Master Audio / Dolby Digital Audio
    Видео: MPEG-4 AVC Video / 21803 kbps / 1920x1080p / 23,976 fps / 16:9 / High Profile 4.1
    Аудио 1: Русский / Dolby Digital Audio / 5.1 / 48 kHz / 640 kbps / 16-bit / Dub + VO lord666
    Аудио 2: Русский / Dolby Digital Audio / 5.1 / 48 kHz / 640 kbps / 16-bit / VO lord666
    Аудио 3: English / DTS-HD Master Audio / 5.1 / 48 kHz / 3919 kbps / 24-bit (DTS Core: 5.1 / 48 kHz / 1509 kbps / 24-bit) / Оригинал
    Навигация по главам: да

Дополнительная информация

  • Русские сабы и дороги №1 и №2 взяты из этой раздачи, thx lord666.
  • За дорогу №1 спасибо также уходит angelica_k.

Скриншот с названием фильма

MediaInfo

C:\/*spam*/\Рок на века (Rock of Ages) 2012, США, мюзикл, мелодрама, комедия, Extended Cut BDRemux 1080p GORESEWAGE.mkv
General
Unique ID : 181366807334025831587597153496414039044 (0x8871F9FCF8127086B0F275E692D02C04)
Complete name : C:\/*spam*/\Рок на века (Rock of Ages) 2012, США, мюзикл, мелодрама, комедия, Extended Cut BDRemux 1080p GORESEWAGE.mkv
Format : Matroska
Format version : Version 4 / Version 2
File size : 25.7 GiB
Duration : 2h 16mn
Overall bit rate mode : Variable
Overall bit rate : 27.0 Mbps
Movie name : GORESEWAGE
Encoded date : UTC 2013-06-10 15:34:41
Writing application : mkvmerge v6.1.0 ('Old Devil') built on Mar 31 2013 15:21:18
Writing library : libebml v1.3.0 + libmatroska v1.4.0
Video #1
ID : 1
Format : AVC
Format/Info : Advanced Video Codec
Format profile : [email protected]
Format settings, CABAC : Yes
Format settings, ReFrames : 2 frames
Format settings, GOP : M=1, N=10
Codec ID : V_MPEG4/ISO/AVC
Duration : 2h 16mn
Bit rate mode : Variable
Bit rate : 22.7 Mbps
Width : 1 920 pixels
Height : 1 080 pixels
Display aspect ratio : 16:9
Frame rate mode : Constant
Frame rate : 23.976 fps
Color space : YUV
Chroma subsampling : 4:2:0
Bit depth : 8 bits
Scan type : Progressive
Bits/(Pixel*Frame) : 0.457
Stream size : 21.6 GiB (84%)
Title : GORESEWAGE
Language : English
Default : Yes
Forced : No
Audio #2
ID : 2
Format : AC-3
Format/Info : Audio Coding 3
Mode extension : CM (complete main)
Format settings, Endianness : Big
Codec ID : A_AC3
Duration : 2h 16mn
Bit rate mode : Constant
Bit rate : 640 Kbps
Channel(s) : 6 channels
Channel positions : Front: L C R, Side: L R, LFE
Sampling rate : 48.0 KHz
Bit depth : 16 bits
Compression mode : Lossy
Stream size : 624 MiB (2%)
Title : Профессиональный (дублированный) + вставки Одноголосый закадровый lord666
Language : Russian
Default : Yes
Forced : No
Audio #3
ID : 3
Format : AC-3
Format/Info : Audio Coding 3
Mode extension : CM (complete main)
Format settings, Endianness : Big
Codec ID : A_AC3
Duration : 2h 16mn
Bit rate mode : Constant
Bit rate : 640 Kbps
Channel(s) : 6 channels
Channel positions : Front: L C R, Side: L R, LFE
Sampling rate : 48.0 KHz
Bit depth : 16 bits
Compression mode : Lossy
Stream size : 624 MiB (2%)
Title : Одноголосый закадровый lord666
Language : Russian
Default : No
Forced : No
Audio #4
ID : 4
Format : DTS
Format/Info : Digital Theater Systems
Format profile : MA / Core
Codec ID : A_DTS
Duration : 2h 16mn
Bit rate mode : Variable
Bit rate : 2 461 Kbps / 1 510 Kbps
Channel(s) : 6 channels
Channel positions : Front: L C R, Side: L R, LFE
Sampling rate : 48.0 KHz
Bit depth : 24 bits
Compression mode : Lossless / Lossy
Title : Оригинал
Language : English
Default : No
Forced : No
Text #5
ID : 5
Format : UTF-8
Codec ID : S_TEXT/UTF8
Codec ID/Info : UTF-8 Plain Text
Title : Songs lord666
Language : Russian
Default : Yes
Forced : No
Text #6
ID : 6
Format : UTF-8
Codec ID : S_TEXT/UTF8
Codec ID/Info : UTF-8 Plain Text
Title : Full lord666
Language : Russian
Default : No
Forced : No
Text #7
ID : 7
Format : UTF-8
Codec ID : S_TEXT/UTF8
Codec ID/Info : UTF-8 Plain Text
Title : Full
Language : English
Default : No
Forced : No
Menu
00:00:00.000 : en:00:00:00.000
00:11:04.205 : en:00:11:04.205
00:19:52.691 : en:00:19:52.691
00:34:26.439 : en:00:34:26.439
00:46:22.905 : en:00:46:22.905
00:58:41.143 : en:00:58:41.143
01:07:17.867 : en:01:07:17.867
01:18:11.854 : en:01:18:11.854
01:28:10.493 : en:01:28:10.493
01:37:44.859 : en:01:37:44.859
01:53:35.851 : en:01:53:35.851
02:03:58.806 : en:02:03:58.806
02:09:06.489 : en:02:09:06.489

Полноразмерные постеры

Other forum [Profile] [PM]
Display posts from previous:    
Reply to topic

The time now is: Today 01:36

All times are GMT + 3 Hours



You cannot post new topics in this forum
You cannot reply to topics in this forum
You cannot edit your posts in this forum
You cannot delete your posts in this forum
You cannot vote in polls in this forum
You cannot attach files in this forum
You cannot download files in this forum