Today is a free download without charge Download

То, что мы потеряли / Things We Lost in the Fire (Сюзанна Бир) [2007 г., драма, BDRip720p]

Reply to topic
 
Author
Message

Delia ®

Gender:

Longevity: 9 years 7 months

Posts: 1821

Торрент-статистика

Post 17-Aug-2011 11:56

[Quote]

То, что мы потерялиThings We Lost in the Fire Год выпуска: 2007
Страна: США, Великобритания
Жанр: драма
Продолжительность: 118 мин.
Перевод: Профессиональный (многоголосый, закадровый)
Режиссер: Сюзанна Бир
Продюссер: Сэм Мендес, Сэм Мерсер, Пиппа Харрис
Сценарий: Аллан Лоб
Бюджет: $16 000 000
Премьера в мире: 26 сентября 2007
В ролях: Холли Берри, Бенисио Дель Торо, Дэвид Духовны, Алексис Ллевелин, Мика Берри, Джон Кэрролл Линч, Элисон Ломан, Робин Вайгерт, Омар Бенсон Миллер, Паула Ньюсом
Описание: Вдова, недавно потерявшая мужа, приглашает его проблемного лучшего друга Джерри пожить вместе с ней и двумя ее детьми. Джерри помогает семье справиться с их утратой, потихоньку приводя и свою жизнь в порядок.
Качество: BDRip720p
Формат: MKV
Видео кодек: H.264
Аудио кодек: AC3
Видео: English, 4784 Кбит/сек, 1280*544 (2,35:1), в 23,976 кадр/сек, AVC ([email protected])
Аудио: Russian, 192 Кбит/сек, 48,0 КГц, 16 бит, 2 канала(ов), AC-3
Аудио:English, 320 Кбит/сек, 48,0 КГц, 16 бит, 6 канала(ов), AC-3
Субтитры:Russian, English - VobSub

MI:

Общее
Уникальный идентификатор : 196963523499681598198412993733684382732 (0x942DCB77187D491F994EE20E98D04C0C)
Полное имя : F:\торрент\Things We Lost in the Fire 2007.BDRip720p.mkv
Формат : Matroska
Размер файла : 4,37 Гбайт
Продолжительность : 1 ч. 58 м.
Общий поток : 5297 Кбит/сек
Дата кодирования : UTC 2011-08-17 07:48:26
Программа кодирования : mkvmerge v4.9.1 ('Ich will') built on Jul 11 2011 23:53:15
Библиотека кодирования : libebml v1.2.1 + libmatroska v1.1.1
Видео
Идентификатор : 1
Формат : AVC
Формат/Информация : Advanced Video Codec
Профиль формата : [email protected]
Параметр CABAC формата : Да
Параметр ReFrames формата : 10 кадры
Идентификатор кодека : V_MPEG4/ISO/AVC
Продолжительность : 1 ч. 58 м.
Битрейт : 4784 Кбит/сек
Ширина : 1280 пикс.
Высота : 544 пикс.
Соотношение сторон : 2,35:1
Частота кадров : 23,976 кадр/сек
Цветовое пространство : YUV
Подвыборка цветности : 4:2:0
Битовая глубина : 8 бит
Тип развёртки : Прогрессивная
Бит/(Пиксели*Кадры) : 0.287
Размер потока : 3,86 Гбайт (88%)
Библиотека кодирования : x264 core 116 r2057 0ba8a9c
Настройки программы : cabac=1 / ref=10 / deblock=1:-2:-2 / analyse=0x3:0x113 / me=umh / subme=9 / psy=1 / psy_rd=1.00:0.25 / mixed_ref=1 / me_range=32 / chroma_me=1 / trellis=2 / 8x8dct=1 / cqm=0 / deadzone=21,11 / fast_pskip=0 / chroma_qp_offset=-4 / threads=6 / sliced_threads=0 / nr=0 / decimate=1 / interlaced=0 / bluray_compat=0 / constrained_intra=0 / bframes=8 / b_pyramid=2 / b_adapt=2 / b_bias=0 / direct=3 / weightb=1 / open_gop=0 / weightp=2 / keyint=250 / keyint_min=23 / scenecut=40 / intra_refresh=0 / rc_lookahead=60 / rc=2pass / mbtree=1 / bitrate=4784 / ratetol=1.0 / qcomp=0.80 / qpmin=5 / qpmax=51 / qpstep=4 / cplxblur=20.0 / qblur=0.5 / ip_ratio=1.40 / aq=1:1.00
Язык : English
Аудио #1
Идентификатор : 2
Формат : AC-3
Формат/Информация : Audio Coding 3
Расширение режима : CM (complete main)
Идентификатор кодека : A_AC3
Продолжительность : 1 ч. 58 м.
Вид битрейта : Постоянный
Битрейт : 192 Кбит/сек
Канал(ы) : 2 канала(ов)
Расположение каналов : Front: L R
Частота : 48,0 КГц
Битовая глубина : 16 бит
Метод сжатия : С потерями
Размер потока : 162 Мбайт (4%)
Язык : Russian
Аудио #2
Идентификатор : 3
Формат : AC-3
Формат/Информация : Audio Coding 3
Расширение режима : CM (complete main)
Идентификатор кодека : A_AC3
Продолжительность : 1 ч. 58 м.
Вид битрейта : Постоянный
Битрейт : 320 Кбит/сек
Канал(ы) : 6 канала(ов)
Расположение каналов : Front: L C R, Side: L R, LFE
Частота : 48,0 КГц
Битовая глубина : 16 бит
Метод сжатия : С потерями
Размер потока : 270 Мбайт (6%)
Язык : English
Текст #1
Идентификатор : 4
Формат : VobSub
Режим смешивания : zlib
Идентификатор кодека : S_VOBSUB
Идентификатор кодека/Информация : The same subtitle format used on DVDs
Язык : Russian
Текст #2
Идентификатор : 5
Формат : VobSub
Режим смешивания : zlib
Идентификатор кодека : S_VOBSUB
Идентификатор кодека/Информация : The same subtitle format used on DVDs
Язык : English
Меню
00:00:00.000 : en:00:00:00.000
00:07:17.895 : en:00:07:17.895
00:14:27.157 : en:00:14:27.157
00:21:33.000 : en:00:21:33.000
00:28:19.572 : en:00:28:19.572
00:37:03.471 : en:00:37:03.471
00:44:17.780 : en:00:44:17.780
00:52:10.335 : en:00:52:10.335
00:58:35.845 : en:00:58:35.845
01:07:19.952 : en:01:07:19.952
01:14:43.937 : en:01:14:43.937
01:20:52.430 : en:01:20:52.430
01:27:39.671 : en:01:27:39.671
01:33:28.519 : en:01:33:28.519
01:39:54.947 : en:01:39:54.947
01:45:29.281 : en:01:45:29.281
01:51:53.707 : en:01:51:53.707

Скриншоты

               

_________________
Человек – это канат, натянутый между животным и сверхчеловеком, – канат над пропастью.
В человеке ценно то, что он мост, а не цель. Фридрих Ницше
Other forum [Profile] [PM]
Display posts from previous:    
Reply to topic

The time now is: Today 10:35

All times are GMT + 3 Hours



You cannot post new topics in this forum
You cannot reply to topics in this forum
You cannot edit your posts in this forum
You cannot delete your posts in this forum
You cannot vote in polls in this forum
You cannot attach files in this forum
You cannot download files in this forum